Всевидящее око / Eye in the Sky (2015) BDRemux 1080p от ExKinoRay | iTunes

[im

Информация о фильме
Название: Всевидящее око
Оригинальное название: Eye in the Sky
Год выхода: 2015
Жанр: Триллер, драма, военный
Режиссер: Гэвин Худ
В ролях: Хелен Миррен, Файза Хассан, Аиша Такоу, Армаан Хаггио, Боб Чаппель, Алекс Гафлавент, Аарон Пол, Бабу Сизей, Карл Бьюкс, Кейт Ликориш

О фильме:
Хелен Миррен играет полковника Пауэлл, офицера армии Великобритании которая возглавляет тайную операцию с применением беспилотного аппарата, целью которой является поимка террористов в Кении. Тщательно спланированная миссия внезапно меняет приоритеты и вместо поимки…

Страна: Великобритания
Студия: Entertainment One
Продолжительность: 01:42:45
Перевод: Профессиональный многоголосый (закадровый) | iTunes

Файл
Кодек: MPEG-4
Качество: BDRemux 1080p
Видео: 1920×1080, 32.5 Mbit/s, 23.976 fps
Звук:
Аудио #01: 48 kHz, AC3, 5.1, 384 Kbps | Профессиональный многоголосый (закадровый), iTunes |AC3
Аудио #02: 48 kHz, DTS-HD MA, 5.1, 3258 kbps | Оригинал |DTS-HD MA
Субтитры: Русские (форсированные), английские

Релиз от: Автор релиза:

MI
General
Unique ID : 226573835367021682200315734104752913792 (0xAA74888DDF55D74FAC073F5C3EA5FD80)
Complete name : F:VideoEye.in.the.Sky.2015.BDREMUX.1080p.ExKinoRay.mkv
Format : Matroska
Format version : Version 4 / Version 2
File size : 26.0 GiB
Duration : 1h 42mn
Overall bit rate mode : Variable
Overall bit rate : 36.2 Mbps
Movie name : Eye.in.the.Sky.2015.BDREMUX.1080p.ExKinoRay
Encoded date : UTC 2016-06-30 21:52:38
Writing application : mkvmerge v8.3.0 ('Over the Horizon') 64bit
Writing library : libebml v1.3.1 + libmatroska v1.4.2

Video
ID : 1
Format : AVC
Format/Info : Advanced Video Codec
Format profile : [email protected]
Format settings, CABAC : Yes
Format settings, ReFrames : 4 frames
Codec ID : V_MPEG4/ISO/AVC
Duration : 1h 42mn
Bit rate mode : Variable
Bit rate : 32.5 Mbps
Maximum bit rate : 36.0 Mbps
Width : 1 920 pixels
Height : 1 080 pixels
Display aspect ratio : 16:9
Frame rate mode : Constant
Frame rate : 23.976 (24000/1001) fps
Color space : YUV
Chroma subsampling : 4:2:0
Bit depth : 8 bits
Scan type : Progressive
Bits/(Pixel*Frame) : 0.654
Stream size : 23.3 GiB (90%)
Title : Eye.in.the.Sky.2015.BDREMUX.1080p.DD.5.1.ExKinoRay.***селезень***
Language : English
Default : Yes
Forced : No

Audio #1
ID : 2
Format : AC-3
Format/Info : Audio Coding 3
Mode extension : CM (complete main)
Format settings, Endianness : Big
Codec ID : A_AC3
Duration : 1h 42mn
Bit rate mode : Constant
Bit rate : 384 Kbps
Channel(s) : 6 channels
Channel positions : Front: L C R, Side: L R, LFE
Sampling rate : 48.0 KHz
Frame rate : 31.250 fps (1536 spf)
Compression mode : Lossy
Stream size : 282 MiB (1%)
Title : MVO [iTunes]
Language : Russian
Default : Yes
Forced : No

Audio #2
ID : 3
Format : DTS
Format/Info : Digital Theater Systems
Format profile : MA / Core
Mode : 16
Format settings, Endianness : Big
Codec ID : A_DTS
Duration : 1h 42mn
Bit rate mode : Variable / Constant
Bit rate : 3 258 Kbps / 1 509 Kbps
Channel(s) : 6 channels
Channel positions : Front: L C R, Side: L R, LFE
Sampling rate : 48.0 KHz
Frame rate : 93.750 fps (512 spf)
Bit depth : 24 bits
Compression mode : Lossless / Lossy
Stream size : 2.34 GiB (9%)
Title : Original DTS-HD MA
Language : English
Default : No
Forced : No

Text #1
ID : 4
Format : UTF-8
Codec ID : S_TEXT/UTF8
Codec ID/Info : UTF-8 Plain Text
Duration : 1h 24mn
Bit rate : 9 bps
Count of elements : 120
Stream size : 6.01 KiB (0%)
Title : Forced
Language : Russian
Default : Yes
Forced : No

Text #2
ID : 5
Format : UTF-8
Codec ID : S_TEXT/UTF8
Codec ID/Info : UTF-8 Plain Text
Duration : 1h 29mn
Bit rate : 53 bps
Count of elements : 1024
Stream size : 34.9 KiB (0%)
Title : Full
Language : English
Default : No
Forced : No

Text #3
ID : 6
Format : UTF-8
Codec ID : S_TEXT/UTF8
Codec ID/Info : UTF-8 Plain Text
Duration : 1h 31mn
Bit rate : 56 bps
Count of elements : 1143
Stream size : 38.1 KiB (0%)
Title : SDH
Language : English
Default : No
Forced : No

Menu
00:00:00.000 : en:00:00:00.000
00:05:23.823 : en:00:05:23.823
00:10:50.149 : en:00:10:50.149
00:15:12.787 : en:00:15:12.787
00:19:07.355 : en:00:19:07.355
00:25:23.230 : en:00:25:23.230
00:30:22.320 : en:00:30:22.320
00:36:55.630 : en:00:36:55.630
00:41:49.590 : en:00:41:49.590
00:46:48.556 : en:00:46:48.556
00:50:25.147 : en:00:50:25.147
00:55:24.279 : en:00:55:24.279
00:59:34.905 : en:00:59:34.905
01:03:25.010 : en:01:03:25.010
01:10:24.262 : en:01:10:24.262
01:16:51.148 : en:01:16:51.148
01:21:32.304 : en:01:21:32.304
01:26:15.003 : en:01:26:15.003
01:30:03.398 : en:01:30:03.398
01:33:42.033 : en:01:33:42.033
Скриншоты


Скачать Eye.in.the.Sky.2015.BDREMUX.1080p.ExKinoRay.mkv.torrent

просмотры: 0

Оставьте первый комментарий

Оставить комментарий

Ваш электронный адрес не будет опубликован.


*