Всевидящее око / Eye in the Sky (2015) BDRip-AVC | iTunes


Информация о фильме
Название: Всевидящее око
Оригинальное название: Eye in the Sky
Год выпуска: 2015
Страна: Великобритания, ЮАР
Жанр: триллер, драма, военный


Перевод: Профессиональный многоголосый [iTunes]
Субтитры: русские (forced), английские (FULL)
Продолжительность: 01:42:45


Режиссер: Гэвин Худ
В ролях: Хелен Миррен (Colonel Katherine Powell), Файза Хассан (Fatima Mo'Allim), Аиша Такоу (Alia Mo'Allim), Армаан Хаггио (Musa Mo'Allim), Боб Чаппель (Simon Powell), Алекс Гафлавент (Reporter), Аарон Пол (Steve Watts), Бабу Сизей (Sergeant Mushtaq Saddiq), Карл Бьюкс (Sergeant Mike Gleeson), Кейт Ликориш (Female Sergeant), Ричард Стефенсон (Staff Sergeant), Габриэлла Пинто (Female Corporal)


Описание:
Война изменилась навсегда. Новые технологии дронов позволяют проникать в ранее недоступные места и предотвращать массовые террористические атаки. Но когда завершение операции становится таким же легким как нажатие одной кнопки, встает самый трудный вопрос. Погубит ли одно решение десятки мирных жителей или же спасет тысячи жизней?


Рейтинг:

MPAA: R — Лицам до 17 лет обязательно присутствие взрослого


Качество: BDRip-AVC
Формат: MKV
Видео: AVC, 1024×426 (2.40:1), 2080 kbps, 23,976 fps, 0,199 bpp
Аудио №1: русский / AC3 / 5.1 / 48 kHz / 384 kbps / 16 bit
Аудио №2: английский / AC3 / 5.1 / 48 kHz / 448 kbps / 16 bit
Навигация по главам: есть


Релиз от: by schultz


ОтчетМедиаИнфо

General
Unique ID : 254572619384550422837921226046455718830 (0xBF84E72F8E0D2F969FC9CB494488A3AE)
Complete name : D:downloadEye in the Sky 2015.BDRip-AVC by schultz R.G.Resident.mkv
Format : Matroska
Format version : Version 4 / Version 2
File size : 2.09 GiB
Duration : 1h 42mn
Overall bit rate : 2 912 Kbps
Encoded date : UTC 2016-07-01 00:51:17
Writing application : mkvmerge v8.9.0 ('Father Daughter') 64bit
Writing library : libebml v1.3.3 + libmatroska v1.4.4
DURATION : 01:42:45.120000000
NUMBER_OF_FRAMES : 192660
NUMBER_OF_BYTES : 345246720
_STATISTICS_WRITING_APP : mkvmerge v8.9.0 ('Father Daughter') 64bit
_STATISTICS_WRITING_DATE_UTC : 2016-07-01 00:51:17
_STATISTICS_TAGS : BPS DURATION NUMBER_OF_FRAMES NUMBER_OF_BYTES

Video
ID : 1
Format : AVC
Format/Info : Advanced Video Codec
Format profile : [email protected]
Format settings, CABAC : Yes
Format settings, ReFrames : 12 frames
Codec ID : V_MPEG4/ISO/AVC
Duration : 1h 42mn
Bit rate : 2 080 Kbps
Width : 1 024 pixels
Height : 426 pixels
Display aspect ratio : 2.40:1
Frame rate : 23.976 fps
Color space : YUV
Chroma subsampling : 4:2:0
Bit depth : 8 bits
Scan type : Progressive
Bits/(Pixel*Frame) : 0.199
Stream size : 1.45 GiB (69%)
Writing library : x264 core 146 r2538 121396c
Encoding settings : cabac=1 / ref=12 / deblock=1:-3:-3 / analyse=0x3:0x113 / me=umh / subme=11 / psy=1 / psy_rd=1.00:0.00 / mixed_ref=1 / me_range=48 / chroma_me=1 / trellis=2 / 8x8dct=1 / cqm=0 / deadzone=21,11 / fast_pskip=0 / chroma_qp_offset=-2 / threads=12 / lookahead_threads=3 / sliced_threads=0 / nr=0 / decimate=0 / interlaced=0 / bluray_compat=0 / constrained_intra=0 / bframes=13 / b_pyramid=2 / b_adapt=2 / b_bias=0 / direct=3 / weightb=1 / open_gop=0 / weightp=2 / keyint=240 / keyint_min=23 / scenecut=40 / intra_refresh=0 / rc_lookahead=40 / rc=2pass / mbtree=1 / bitrate=2080 / ratetol=1.0 / qcomp=0.60 / qpmin=0 / qpmax=69 / qpstep=4 / cplxblur=20.0 / qblur=0.5 / vbv_maxrate=14000 / vbv_bufsize=14000 / nal_hrd=none / filler=0 / ip_ratio=1.40 / aq=1:1.00
Language : English
Default : Yes
Forced : No
DURATION : 01:42:45.127000000
NUMBER_OF_FRAMES : 147815
NUMBER_OF_BYTES : 1601313139
_STATISTICS_WRITING_APP : mkvmerge v8.9.0 ('Father Daughter') 64bit
_STATISTICS_WRITING_DATE_UTC : 2016-07-01 00:51:17
_STATISTICS_TAGS : BPS DURATION NUMBER_OF_FRAMES NUMBER_OF_BYTES

Audio #1
ID : 2
Format : AC-3
Format/Info : Audio Coding 3
Mode extension : CM (complete main)
Codec ID : A_AC3
Duration : 1h 42mn
Bit rate mode : Constant
Bit rate : 384 Kbps
Channel(s) : 6 channels
Channel positions : Front: L C R, Side: L R, LFE
Sampling rate : 48.0 KHz
Bit depth : 16 bits
Compression mode : Lossy
Stream size : 282 MiB (13%)
Language : Russian
Default : Yes
Forced : No

Audio #2
ID : 3
Format : AC-3
Format/Info : Audio Coding 3
Mode extension : CM (complete main)
Codec ID : A_AC3
Duration : 1h 42mn
Bit rate mode : Constant
Bit rate : 448 Kbps
Channel(s) : 6 channels
Channel positions : Front: L C R, Side: L R, LFE
Sampling rate : 48.0 KHz
Bit depth : 16 bits
Compression mode : Lossy
Stream size : 329 MiB (15%)
Language : English
Default : No
Forced : No

Text #1
ID : 4
Format : UTF-8
Codec ID : S_TEXT/UTF8
Codec ID/Info : UTF-8 Plain Text
Title : forced
Language : Russian
Default : Yes
Forced : No

Text #2
ID : 5
Format : UTF-8
Codec ID : S_TEXT/UTF8
Codec ID/Info : UTF-8 Plain Text
Title : FULL
Language : English
Default : No
Forced : No

Menu
00:00:00.000 : en:00:00:00.000
00:05:23.823 : en:00:05:23.823
00:10:50.149 : en:00:10:50.149
00:15:12.787 : en:00:15:12.787
00:19:07.355 : en:00:19:07.355
00:25:23.230 : en:00:25:23.230
00:30:22.320 : en:00:30:22.320
00:36:55.630 : en:00:36:55.630
00:41:49.590 : en:00:41:49.590
00:46:48.556 : en:00:46:48.556
00:50:25.147 : en:00:50:25.147
00:55:24.279 : en:00:55:24.279
00:59:34.905 : en:00:59:34.905
01:03:25.010 : en:01:03:25.010
01:10:24.262 : en:01:10:24.262
01:16:51.148 : en:01:16:51.148
01:21:32.304 : en:01:21:32.304
01:26:15.003 : en:01:26:15.003
01:30:03.398 : en:01:30:03.398
01:33:42.033 : en:01:33:42.033

Скриншоты


Скачать Eye_in_the_Sky_2015.BDRip-AVC_by_schultz_R.G.Re.torrent

просмотры: 0

Оставьте первый комментарий

Оставить комментарий

Ваш электронный адрес не будет опубликован.


*