Ловкость / Sleight (2016) BDRip-AVC от Generalfilm | iTunes

Название: Ловкость
Оригинальное название: Sleight
Год выпуска: 2016
Жанр: Фантастика, боевик, триллер, драма
Выпущено: США, Diablo Entertainment (II)
Режиссер: Джастин Диллард
В ролях: Джейкоб Латимор, Сейшелл Гэбриел, Дуле Хилл, Сторм Рейд, Сашир Замата, Майкл Виллар, Брэндон Джонсон, Камерон Эспозито, Эндрю Фицпатрик, Джей Уокер

О фильме: Молодой уличный фокусник вынужден взять на себя заботу о маленькой сестре после того, как их родители попытались незаконным путем сохранить крышу над головой. Малышку похищают и, чтобы спасти ее, парню придется использовать свою магию и блестящий ум.

Качество: BDRip (AVC)
Формат: MKV
Видео: 1024×426 (2.40:1), 23.976 fps, 1 520 Kbps (0.145 bit/pixel)
Аудио: Русский (AC3, 6 ch, 384 Кбит/с)
Продолжительность: 01:29:16
Перевод: Профессиональный многоголосый [iTunes]
Навигация по главам: есть
Релиз от

Скриншоты

ОтчетМедиаИнфо
Общее
Уникальный идентификатор : 196375419852659243576817165785630410856 (0x93BC87B77D70AA2E852A0BB51CFA8868)
Полное имя : E:Sleight.2016.BDRip-AVC.Rip.by.White Smoke.R.G.Generalfilm.mkv
Формат : Matroska
Размер файла : 1,19 Гбайт
Продолжительность : 1 ч. 29 м.
Общий поток : 1905 Кбит/сек
Название фильма : Sleight.2016.BDRip-AVC.Rip.by.White Smoke.R.G.Generalfilm.mkv
Дата кодирования : UTC 2017-08-31 07:07:01
Программа кодирования : mkvmerge v6.8.0 ('Theme for Great Cities') 64bit built on Mar 2 2014 21:34:26
Библиотека кодирования : libebml v1.3.0 + libmatroska v1.4.1

Видео
Идентификатор : 1
Формат : AVC
Формат/Информация : Advanced Video Codec
Профиль формата : [email protected]
Параметр CABAC формата : Да
Параметр ReFrames формата : 12 кадры
Идентификатор кодека : V_MPEG4/ISO/AVC
Продолжительность : 1 ч. 29 м.
Битрейт : 1520 Кбит/сек
Ширина : 1024 пикс.
Высота : 426 пикс.
Соотношение сторон : 2,40:1
Частота кадров : 23,976 кадр/сек
Цветовое пространство : YUV
Подвыборка цветности : 4:2:0
Битовая глубина : 8 бит
Тип развёртки : Прогрессивная
Бит/(Пиксели*Кадры) : 0.145
Размер потока : 947 Мбайт (78%)
Библиотека кодирования : x264 core 148 r2638 7599210
Настройки программы : cabac=1 / ref=12 / deblock=1:-1:-2 / analyse=0x3:0x113 / me=umh / subme=11 / psy=1 / psy_rd=1.00:0.14 / mixed_ref=1 / me_range=32 / chroma_me=1 / trellis=2 / 8x8dct=1 / cqm=0 / deadzone=21,11 / fast_pskip=0 / chroma_qp_offset=-5 / threads=6 / lookahead_threads=1 / sliced_threads=0 / nr=0 / decimate=0 / interlaced=0 / bluray_compat=0 / constrained_intra=0 / bframes=10 / b_pyramid=2 / b_adapt=2 / b_bias=10 / direct=1 / weightb=0 / open_gop=0 / weightp=2 / keyint=240 / keyint_min=23 / scenecut=40 / intra_refresh=0 / rc_lookahead=40 / rc=2pass / mbtree=1 / bitrate=1520 / ratetol=1.0 / qcomp=0.70 / qpmin=0 / qpmax=69 / qpstep=4 / cplxblur=20.0 / qblur=0.5 / vbv_maxrate=50000 / vbv_bufsize=65500 / nal_hrd=none / filler=0 / ip_ratio=1.40 / aq=1:1.00

Аудио
Идентификатор : 2
Формат : AC-3
Формат/Информация : Audio Coding 3
Расширение режима : CM (complete main)
Идентификатор кодека : A_AC3
Продолжительность : 1 ч. 29 м.
Вид битрейта : Постоянный
Битрейт : 384 Кбит/сек
Канал(ы) : 6 канала(ов)
Расположение каналов : Front: L C R, Side: L R, LFE
Частота : 48,0 КГц
Битовая глубина : 16 бит
Метод сжатия : С потерями
Размер потока : 245 Мбайт (20%)
Заголовок : iTunes
Язык : Russian

Меню
00:00:00.000 : en:Chapter 01
00:05:06.055 : en:Chapter 02
00:11:20.846 : en:Chapter 03
00:14:06.011 : en:Chapter 04
00:18:15.469 : en:Chapter 05
00:24:13.410 : en:Chapter 06
00:28:46.933 : en:Chapter 07
00:34:23.728 : en:Chapter 08
00:38:57.168 : en:Chapter 09
00:43:32.818 : en:Chapter 10
00:49:00.520 : en:Chapter 11
00:51:59.282 : en:Chapter 12
00:53:57.484 : en:Chapter 13
00:59:05.750 : en:Chapter 14
01:05:31.928 : en:Chapter 15
01:09:55.274 : en:Chapter 16
01:13:27.111 : en:Chapter 17
01:15:21.391 : en:Chapter 18
01:22:06.630 : en:Chapter 19
01:24:43.995 : en:Chapter 20
01:29:16.142 : en:Chapter 21


Скачать Sleight.2016.BDRip-AVC.Rip.by.White_Smoke.R.G.G.torrent

просмотры: 0

Оставьте первый комментарий

Оставить комментарий

Ваш электронный адрес не будет опубликован.


*