Детектив Конан (фильм четвертый) / Detective Conan Movie 04 Captured In Her Eyes (2000) BDRip | Persona99


Meitantei Conan: Hitomi no Naka no Ansatsusha

Страна: Япония
Год выпуска: 2000
Жанр: приключения, детектив
Тип: Movie
Продолжительность: полнометражный фильм, 1ч 39мин.
Режиссер: Кодама Кэндзи
Студия: TmS

Описание:
Четвертый фильм расскажет о нападениях на офицеров полиции, занятых расследованием одного давнего преступления.

Доп. информация:
Релиз GSGroup

Фильм рекомендуется смотреть после просмотра 186 серий сериала.

Качество: BDRip
Тип релиза: Без хардсаба
Формат видео: AVI
Видео: XviD 720×400, 1512 Kbps, 23.976 fps, 8 bits
Аудио 1: AC-3, 48.0 KHz, 192 Kbps, 2 channels Язык Русский (в составе контейнера) ; Озвучка: Любительская одноголосая: Persona99
Аудио 2: AC-3, 48.0 KHz, 192 Kbps, 2 channels Язык Японский
Субтитры: ass, srt, внешние Язык субтитров русский ; Перевод: тайминг, оформление — Smarter, Лирика (главная тема "Kimi ga Ireba") — Линхх Лирика — Hollow

Подробные тех. данные

General
Complete name : Detective Conan Movie 04 (2000)Detective Conan Movie 04 Captured In Her Eyes [Persona99] (BD XviD 720×400 AC3 ).rus.jpn.avi
Format : AVI
Format/Info : Audio Video Interleave
File size : 1.33 GiB
Duration : 1h 39mn
Overall bit rate : 1 910 Kbps
Writing application : VirtualDubMod 1.5.10.2 (build 2540/release)
Writing library : VirtualDubMod build 2540/release

Video
ID : 0
Format : MPEG-4 Visual
Format profile : Advanced [email protected]
Format settings, BVOP : 2
Format settings, QPel : No
Format settings, GMC : No warppoints
Format settings, Matrix : Default (H.263)
Codec ID : XVID
Codec ID/Hint : XviD
Duration : 1h 39mn
Bit rate : 1 512 Kbps
Width : 720 pixels
Height : 400 pixels
Display aspect ratio : 16:9
Frame rate : 23.976 fps
Color space : YUV
Chroma subsampling : 4:2:0
Bit depth : 8 bits
Scan type : Progressive
Compression mode : Lossy
Bits/(Pixel*Frame) : 0.219
Stream size : 1.05 GiB (79%)
Writing library : XviD 1.2.1 (UTC 2008-12-04)

Audio #1
ID : 1
Format : AC-3
Format/Info : Audio Coding 3
Mode extension : CM (complete main)
Format settings, Endianness : Big
Codec ID : 2000
Duration : 1h 39mn
Bit rate mode : Constant
Bit rate : 192 Kbps
Channel(s) : 2 channels
Channel positions : Front: L R
Sampling rate : 48.0 KHz
Compression mode : Lossy
Stream size : 137 MiB (10%)
Alignment : Split accross interleaves
Interleave, duration : 42 ms (1.00 video frame)
Interleave, preload duration : 500 ms

Audio #2
ID : 2
Format : AC-3
Format/Info : Audio Coding 3
Mode extension : CM (complete main)
Format settings, Endianness : Big
Codec ID : 2000
Duration : 1h 39mn
Bit rate mode : Constant
Bit rate : 192 Kbps
Channel(s) : 2 channels
Channel positions : Front: L R
Sampling rate : 48.0 KHz
Compression mode : Lossy
Stream size : 137 MiB (10%)
Alignment : Split accross interleaves
Interleave, duration : 42 ms (1.00 video frame)
Interleave, preload duration : 500 ms

Скриншоты

Sempl: https://yadi.sk/i/prPxJbr_3L5Yei



Скачать Detective_Conan_Movie_04_2000.torrent

просмотры: 1

Оставьте первый комментарий

Оставить комментарий

Ваш электронный адрес не будет опубликован.


*