Конец света / End of Days (1999) BDRip 720p от k.e.n | D, P, A

Производство: США / Beacon Communications LLC, Universal Pictures
Жанр: Ужасы, Боевик, Триллер, Детектив

Режиссер: Питер Хайамс
Актеры: Арнольд Шварценеггер, Гэбриел Бирн, Робин Танни, Кевин Поллак, Си Си Эйч Паундер, Мириам Маргулис, Род Стайгер, Джек Ширер, Майкл О’Хаган, Деррик О’Коннор

Описание:
Ее рождения боялись веками. С начала эры в своих одиноких кельях отшельники переписывали слова страшного пророчества. В глубине времен звезды предсказали младенцу страшную судьбу: она должна стать невестой самого Дьявола. И в конце тысячелетия Сатана восстанет из ада, чтобы вступить с несчастной в страшный союз. Если это случится, на земле наступит царство Зла и человечество навсегда погрузится во тьму.
Ужасное пророчество, в которое боялись поверить, сбылось. Князь тьмы вырвался из заточения в поисках своей невесты. Время повернуло вспять, отсчитывая мгновения до рокового финала. Но предсказатели не учли одного — того, кто осмелился встать на пути у всесильного Люцифера, чтобы в одиночку остановить Апокалипсис…

Релиз от: K.E.N
Продолжительность: 02:02:17
Качество видео: BDRip 720p
Перевод: Дублированный, многоголосый закадровый, авторский
Субтитры: Русский, английский

Видео: AVC, 1280×544 (2.35:1), 23.976 fps, 4 516 Kbps (0.271 bit/pixel)
Аудио #1: AC-3, 48.0 KHz, 6 ch, 448 Kbps, CBR (Russian) — Дублированный
Аудио #2: AC-3, 48.0 KHz, 6 ch, 448 Kbps, CBR (Russian) — Профессиональный многоголосый — Карусель
Аудио #3: AC-3, 48.0 KHz, 6 ch, 448 Kbps, CBR (Russian) — Профессиональный многоголосый — С.Р.И.
Аудио #4: AC-3, 48.0 KHz, 6 ch, 448 Kbps, CBR (Russian) — Авторский одноголосый — Андрей Гаврилов
Аудио #5: AC-3, 48.0 KHz, 2 ch, 128 Kbps, CBR (Russian) — Профессиональный многоголосый — ОРТ
Аудио #6: AC-3, 48.0 KHz, 2 ch, 192 Kbps, CBR (Russian) — Профессиональный многоголосый — НТВ
Аудио #7: AC-3, 48.0 KHz, 2 ch, 192 Kbps, CBR (Russian) — Авторский одноголосый — Андрей Дольский
Аудио #8: AC-3, 48.0 KHz, 6 ch, 448 Kbps, CBR (Russian) — Е.Гаевский по переводу А.Завгороднего
Аудио #9: AC-3, 48.0 KHz, 6 ch, 448 Kbps, CBR (English) — оригинал

x264 log
x264 [info]: profile High, level 4.1
x264 [info]: frame I:1796 Avg QP:13.20 size: 87475 PSNR Mean Y:49.74 U:52.47 V:53.43 Avg:50.53 Global:49.99
x264 [info]: frame P:41752 Avg QP:15.65 size: 40229 PSNR Mean Y:48.02 U:51.31 V:52.63 Avg:48.90 Global:48.22
x264 [info]: frame B:132385 Avg QP:17.70 size: 17392 PSNR Mean Y:46.79 U:50.60 V:52.05 Avg:47.77 Global:47.00
Mediainfo:

Формат : Matroska
Версия формата : Version 2
Размер файла : 6,58 Гбайт
Продолжительность : 2 ч. 2 м.
Общий поток : 7707 Кбит/сек
Дата кодирования : UTC 2016-10-30 04:07:16
Программа кодирования : mkvmerge v5.3.0 ('I could have danced') built on Feb 9 2012 10:38:07
Библиотека кодирования : libebml v1.2.3 + libmatroska v1.3.0
Attachment : Yes / Yes

Видео
Идентификатор : 1
Формат : AVC
Формат/Информация : Advanced Video Codec
Профиль формата : [email protected]
Параметр CABAC формата : Да
Параметр ReFrames формата : 10 кадров
Идентификатор кодека : V_MPEG4/ISO/AVC
Продолжительность : 2 ч. 2 м.
Битрейт : 4516 Кбит/сек
Ширина : 1280 пикселей
Высота : 544 пикселя
Соотношение сторон : 2,35:1
Режим частоты кадров : Постоянный
Частота кадров : 23,976 кадра/сек
Цветовое пространство : YUV
Субдискретизация насыщенности : 4:2:0
Битовая глубина : 8 бит
Тип развёртки : Прогрессивная
Бит/(Пиксели*Кадры) : 0.271
Размер потока : 3,72 Гбайт (56%)
Библиотека кодирования : x264 core 146 r2538 121396c
Настройки программы : cabac=1 / ref=10 / deblock=1:-3:-3 / analyse=0x3:0x133 / me=umh / subme=11 / psy=1 / psy_rd=1.00:0.00 / mixed_ref=1 / me_range=32 / chroma_me=1 / trellis=2 / 8x8dct=1 / cqm=0 / deadzone=21,11 / fast_pskip=0 / chroma_qp_offset=-2 / threads=12 / lookahead_threads=2 / sliced_threads=0 / nr=0 / decimate=0 / interlaced=0 / bluray_compat=0 / constrained_intra=0 / bframes=8 / b_pyramid=2 / b_adapt=2 / b_bias=0 / direct=3 / weightb=1 / open_gop=0 / weightp=2 / keyint=240 / keyint_min=23 / scenecut=40 / intra_refresh=0 / rc=2pass / mbtree=0 / bitrate=4516 / ratetol=1.0 / qcomp=0.60 / qpmin=0 / qpmax=69 / qpstep=4 / cplxblur=20.0 / qblur=0.5 / ip_ratio=1.40 / pb_ratio=1.30 / aq=1:0.70
Язык : English
Default : Да
Forced : Нет

Аудио #1
Идентификатор : 2
Формат : AC-3
Формат/Информация : Audio Coding 3
Расширение режима : CM (complete main)
Параметр Endianness формата : Big
Идентификатор кодека : A_AC3
Продолжительность : 2 ч. 2 м.
Вид битрейта : Постоянный
Битрейт : 448 Кбит/сек
Каналы : 6 каналов
Расположение каналов : Front: L C R, Side: L R, LFE
Частота : 48,0 КГц
Битовая глубина : 16 бит
Метод сжатия : С потерями
Размер потока : 392 Мбайт (6%)
Заголовок : Дублированный
Язык : Russian
Default : Да
Forced : Да

Аудио #2
Идентификатор : 3
Формат : AC-3
Формат/Информация : Audio Coding 3
Расширение режима : CM (complete main)
Параметр Endianness формата : Big
Идентификатор кодека : A_AC3
Продолжительность : 2 ч. 2 м.
Вид битрейта : Постоянный
Битрейт : 448 Кбит/сек
Каналы : 6 каналов
Расположение каналов : Front: L C R, Side: L R, LFE
Частота : 48,0 КГц
Битовая глубина : 16 бит
Метод сжатия : С потерями
Размер потока : 392 Мбайт (6%)
Заголовок : Профессиональный многоголосый — Карусель
Язык : Russian
Default : Нет
Forced : Нет

Аудио #3
Идентификатор : 4
Формат : AC-3
Формат/Информация : Audio Coding 3
Расширение режима : CM (complete main)
Параметр Endianness формата : Big
Идентификатор кодека : A_AC3
Продолжительность : 2 ч. 2 м.
Вид битрейта : Постоянный
Битрейт : 448 Кбит/сек
Каналы : 6 каналов
Расположение каналов : Front: L C R, Side: L R, LFE
Частота : 48,0 КГц
Битовая глубина : 16 бит
Метод сжатия : С потерями
Размер потока : 392 Мбайт (6%)
Заголовок : Профессиональный многоголосый — С.Р.И.
Язык : Russian
Default : Нет
Forced : Нет

Аудио #4
Идентификатор : 5
Формат : AC-3
Формат/Информация : Audio Coding 3
Расширение режима : CM (complete main)
Параметр Endianness формата : Big
Идентификатор кодека : A_AC3
Продолжительность : 2 ч. 2 м.
Вид битрейта : Постоянный
Битрейт : 448 Кбит/сек
Каналы : 6 каналов
Расположение каналов : Front: L C R, Side: L R, LFE
Частота : 48,0 КГц
Битовая глубина : 16 бит
Метод сжатия : С потерями
Размер потока : 392 Мбайт (6%)
Заголовок : Авторский одноголосый — Андрей Гаврилов
Язык : Russian
Default : Нет
Forced : Нет

Аудио #5
Идентификатор : 6
Формат : AC-3
Формат/Информация : Audio Coding 3
Расширение режима : CM (complete main)
Параметр Endianness формата : Big
Идентификатор кодека : A_AC3
Продолжительность : 2 ч. 2 м.
Вид битрейта : Постоянный
Битрейт : 128 Кбит/сек
Каналы : 2 канала
Расположение каналов : Front: L R
Частота : 48,0 КГц
Битовая глубина : 16 бит
Метод сжатия : С потерями
Размер потока : 112 Мбайт (2%)
Заголовок : Профессиональный многоголосый — ОРТ
Язык : Russian
Default : Нет
Forced : Нет

Аудио #6
Идентификатор : 7
Формат : AC-3
Формат/Информация : Audio Coding 3
Расширение режима : CM (complete main)
Параметр Endianness формата : Big
Идентификатор кодека : A_AC3
Продолжительность : 2 ч. 2 м.
Вид битрейта : Постоянный
Битрейт : 192 Кбит/сек
Каналы : 2 канала
Расположение каналов : Front: L R
Частота : 48,0 КГц
Битовая глубина : 16 бит
Метод сжатия : С потерями
Размер потока : 168 Мбайт (2%)
Заголовок : Профессиональный многоголосый — НТВ
Язык : Russian
Default : Нет
Forced : Нет

Аудио #7
Идентификатор : 8
Формат : AC-3
Формат/Информация : Audio Coding 3
Расширение режима : CM (complete main)
Параметр Endianness формата : Big
Идентификатор кодека : A_AC3
Продолжительность : 2 ч. 2 м.
Вид битрейта : Постоянный
Битрейт : 192 Кбит/сек
Каналы : 2 канала
Расположение каналов : Front: L R
Частота : 48,0 КГц
Битовая глубина : 16 бит
Метод сжатия : С потерями
Размер потока : 168 Мбайт (2%)
Заголовок : Авторский одноголосый — Андрей Дольский
Язык : Russian
Default : Нет
Forced : Нет

Аудио #8
Идентификатор : 9
Формат : AC-3
Формат/Информация : Audio Coding 3
Расширение режима : CM (complete main)
Параметр Endianness формата : Big
Идентификатор кодека : A_AC3
Продолжительность : 2 ч. 2 м.
Вид битрейта : Постоянный
Битрейт : 448 Кбит/сек
Каналы : 6 каналов
Расположение каналов : Front: L C R, Side: L R, LFE
Частота : 48,0 КГц
Битовая глубина : 16 бит
Метод сжатия : С потерями
Размер потока : 392 Мбайт (6%)
Заголовок : Е.Гаевский по переводу А.Завгороднего
Язык : Russian
Default : Нет
Forced : Нет

Аудио #9
Идентификатор : 13
Формат : AC-3
Формат/Информация : Audio Coding 3
Расширение режима : CM (complete main)
Параметр Endianness формата : Big
Идентификатор кодека : A_AC3
Продолжительность : 2 ч. 2 м.
Вид битрейта : Постоянный
Битрейт : 448 Кбит/сек
Каналы : 6 каналов
Расположение каналов : Front: L C R, Side: L R, LFE
Частота : 48,0 КГц
Битовая глубина : 16 бит
Метод сжатия : С потерями
Размер потока : 392 Мбайт (6%)
Язык : English
Default : Нет
Forced : Нет

Текст #1
Идентификатор : 10
Формат : UTF-8
Идентификатор кодека : S_TEXT/UTF8
Идентификатор кодека/Информация : UTF-8 Plain Text
Заголовок : Форсированные
Язык : Russian
Default : Да
Forced : Да

Текст #2
Идентификатор : 11
Формат : UTF-8
Идентификатор кодека : S_TEXT/UTF8
Идентификатор кодека/Информация : UTF-8 Plain Text
Заголовок : full
Язык : Russian
Default : Нет
Forced : Нет

Текст #3
Идентификатор : 12
Формат : UTF-8
Идентификатор кодека : S_TEXT/UTF8
Идентификатор кодека/Информация : UTF-8 Plain Text
Язык : English
Default : Нет
Forced : Нет

Меню
00:00:00.000 : en:Main Titles
00:03:07.354 : en:The Chosen One
00:08:17.664 : en:The Dark Angel
00:12:46.891 : en:Jericho
00:15:17.834 : en:To Kill a Devil
00:23:26.697 : en:The Priest's Secret
00:29:15.170 : en:He's Coming for You…
00:34:59.681 : en:Another World
00:41:32.031 : en:The Devil's Revenge
00:47:15.249 : en:Last Rites
00:57:13.764 : en:Hell Breaks Loose
01:04:03.882 : en:The Number of the Beast
01:09:08.186 : en:The Devil's Offer
01:21:47.778 : en:I've Come for My Bride
01:27:28.910 : en:The Last Day
01:33:31.606 : en:The Ceremony
01:38:54.303 : en:Subway to Hell
01:48:00.516 : en:The Devil Inside
01:52:27.282 : en:The Ultimate Sacrifice
01:55:57.951 : en:End Titles

Скриншоты:


Скачать Konets_sveta.1999_A.SHvartseneggerG.Birn.mkv.torrent

просмотры: 1

Оставьте первый комментарий

Оставить комментарий

Ваш электронный адрес не будет опубликован.


*