Американская история ужасов / American Horror Story [07×01 из 11] (2017) WEB-DLRip | OMSKBIRD

Информация о фильме
Название: Американская история ужасов
Оригинальное название: American Horror Story
Год выхода: 2017
Жанр: Ужасы, фэнтези, триллер, драма
Режиссер: Брэдли Букер, Майкл Аппендаль, Альфонсо Гомез-Рейон, Майкл Леманн
В ролях: Леди Гага, Эван Питерс, Джессика Лэнг, Лили Рэйб, Фрэнсис Конрой, Сара Полсон, Таисса Фармига, Дэнис О`Харе, Закари Куинто, Дилан МакДермотт, Джэми Брюэр, Кэти Бэйтс, Джозеф Файнс, Лиззи Брошере, Эмма Робертс, Джеймс Кромуэлл, Конни Бриттон, Анджела Бассетт, Габури Сидибе, Кейт Мара и др.
О фильме:
«Американская история ужасов», созданная и спродюсированная Райаном Мёрфи и Брэдом Фалчуком, запала в душу огромному числу ценителей жанра хоррор по всему миру. Сюжет сериала строится вокруг классических для американского хоррора тем (дом с привидениями, цирк уродов, психиатрическая лечебница и др.). Каждый сезон посвящен отдельной цепочке событий, от которых бегут мурашки по коже и в страхе замирает сердце. От чего побегут мурашки и замрет сердце в шестом сезоне сериала, не узнаете, пока не посмотрите.

Страна: США
Продолжительность: ~00:49:00 серия
Перевод: Любительский (многоголосый закадровый) | OMSKBIRD records

Файл
Кодек: XviD
Качество: WEB-DLRip
Видео: 720×400 (1.80:1), 23.976 fps, ~2066 kbps avg, 0.30 bit/pixel
Звук:
Аудио rus: AC3, 48 kHz, 2 ch, 192 Kbps | OmskBird
Субтитры: отсутствуют
Реклама: присутствует

Семпл

Релиз:

Релиз-группа: OmskBird
Перевод: Татьяна Масаковская
Роли озвучивали: Алексей Гнеушев, Павел Ярощик, Владислав Данилов, Екатерина Кабашова
Звукорежиссер: Павел Квентов
Постер: Ксения Просветова

Список серий:

01. Election Night

MediaInfo:

General
Complete name : G:FilmsAmerican.Horror.Story.S07.WEB-DLRip.OmskBirdAmerican.Horror.Story.S07E01.WEB-DLRip.OmskBird.avi
Format : AVI
Format/Info : Audio Video Interleave
File size : 797 MiB
Duration : 49mn 6s
Overall bit rate : 2 268 Kbps
Writing application : VirtualDubMod 1.5.10.3 (build 2550/release)
Writing library : VirtualDubMod build 2550/release

Video
ID : 0
Format : MPEG-4 Visual
Format profile : Advanced [email protected]
Format settings, BVOP : 1
Format settings, QPel : No
Format settings, GMC : No warppoints
Format settings, Matrix : Default (MPEG)
Codec ID : XVID
Codec ID/Hint : XviD
Duration : 49mn 6s
Bit rate : 2 067 Kbps
Width : 720 pixels
Height : 400 pixels
Display aspect ratio : 16:9
Frame rate : 23.976 (23976/1000) fps
Color space : YUV
Chroma subsampling : 4:2:0
Bit depth : 8 bits
Scan type : Progressive
Compression mode : Lossy
Bits/(Pixel*Frame) : 0.299
Stream size : 726 MiB (91%)
Writing library : XviD 73

Audio
ID : 1
Format : AC-3
Format/Info : Audio Coding 3
Mode extension : CM (complete main)
Format settings, Endianness : Big
Codec ID : 2000
Duration : 49mn 6s
Bit rate mode : Constant
Bit rate : 192 Kbps
Channel(s) : 2 channels
Channel positions : Front: L R
Sampling rate : 48.0 KHz
Frame rate : 31.250 fps (1536 spf)
Compression mode : Lossy
Stream size : 67.5 MiB (8%)
Alignment : Split accross interleaves
Interleave, duration : 42 ms (1.00 video frame)
Interleave, preload duration : 500 ms

Скриншоты

Внимание! Раздача ведётся путём добавления новых серий.

Внимание! Раздача ведётся путём добавления новых серий; при каждом добавлении создётся новый торрент. Чтобы начать докачку новой серии, пользователям необходимо сделать следующее:
Остановить скачивание.
Удалить старый торрент у себя из клиента (старые серии удалять не надо).
Скачать новый торрент и запустить его у себя в клиенте вместо старого, при этом указать клиенту путь в старую папку куда и должно происходить скачивание новых серий.
Ваш клиент при этом должен произвести хеширование (проверку) старой папки (если не производит сам — помогите ему сделать это), и будет докачивать только те серии которых у вас ещё нет. Старые серии при этом не удаляются, а продолжают раздаваться!
Eсли вы уже удалили старые серии, то предотвратить повторную закачку старых серий можно, отжав галочку в соответсвующих местах при запуске нового торрента. По возможности, желательно не удалять старые серии как можно дольше чтобы релизёр не столько продолжал раздавать старые серии, а смог сконцентрироваться на новых.

Релиз от: OmskBird


Скачать American.Horror.Story.S07.WEB-DLRip.OmskBird.torrent

просмотры: 0

Оставьте первый комментарий

Оставить комментарий

Ваш электронный адрес не будет опубликован.


*