Kingsman: Секретная служба / Kingsman: The Secret Service (2014) BDRip-HEVC 1080p | D


Kingsman: Секретная служба
Kingsman: The Secret Service
(2014)
[email protected] 1080p



Жанр: Боевик, комедия, криминал, приключения

Режиссер: Мэттью Вон

В ролях:
Тэрон Эджертон (Gary «Eggsy» Unwin), Колин Фёрт (Harry Hart / Galahad), Сэмюэл Л. Джексон (Valentine), Марк Стронг (Merlin), Софи Куксон (Roxy), Майкл Кейн (Arthur), София Бутелла (Gazelle), Саманта Янус (Michelle Unwin), Джофф Белл (Dean), Марк Хэмилл (Professor Arnold), Джек Девенпорт (Lancelot), Эдвард Холкрофт (Charlie)

Описание:
Эггси — молодой парень, который прошел службу в морской пехоте и имеет очень высокий уровень интеллекта. Он мог бы добиться многого, но выбрал другой путь и стал мелким преступником. Однажды он знакомится с Гарри Хартом, которому его отец когда-то спас жизнь. Этот человек решил сделать все возможное, чтобы сделать жизнь Эггси лучше и открыть для него новые возможности.
Гарри рассказал ему, что является агентом секретной независимой организации, которая стоит на защите всего мира. Он предложил парню пройти обучение и стать новым членом их команды. Эггси принял предложение Харта, но сможет ли он справиться со всеми испытаниями и оправдать его надежды?…

Страна: Великобритания
Выпущено: Twentieth Century Fox Film Corporation, Marv Films, Cloudy Productions
Продолжительность: 02:08:44
Перевод: Русский профессиональный (полное дублирование)

Внимание!

Рип в фомате HEVC, в настоящее время не поддерживается большинством аппаратных проигрывателей.
Для корректного воспроизведения может потребоваться обновление ПО.
Владельцам несовместимого железа просьба не беспокоить, на трекере есть альтернативные релизы.

Качество: BDRip 1080p [email protected]
Исходник: Blu-Ray Disc
Контейнер: MKV
Видео кодек: [email protected]
Аудио кодек: AC-3
Видео: HEVC 12bit at 3163 Кбит/сек, 1920 x 808 (2.376) at 23.976 fps
Аудио: AC-3 at 448 Кбит/сек, 6 каналов, 48,0 КГц
Субтитры 1: русские форсированные, на места без перевода (SRT/UTF-8)
Субтитры 2: русские полные (SRT/UTF-8)
Навигация по главам: есть

MediaInfo

Общее
Уникальный идентификатор : 210630009973300145439499190093207844491 (0x9E75DD455914BE1D864CA6D48E28368B)
Полное имя : Kingsman Секретная служба [Kingsman The Secret Service] (2014) BDRip [email protected] 1080p.mkv
Формат : Matroska
Версия формата : Version 4 / Version 2
Размер файла : 3,25 Гбайт
Продолжительность : 2 ч. 8 м.
Общий поток : 3614 Кбит/сек
Дата кодирования : UTC 2017-09-01 19:46:30
Программа кодирования : mkvmerge v15.0.0 ('Duel with the Devil') 32-bit
Библиотека кодирования : libebml v1.3.5 + libmatroska v1.4.5

Видео
Идентификатор : 1
Формат : HEVC
Формат/Информация : High Efficiency Video Coding
Идентификатор кодека : V_MPEGH/ISO/HEVC
Продолжительность : 2 ч. 8 м.
Битрейт : 3094 Кбит/сек
Ширина : 1920 пикселей
Высота : 808 пикселей
Соотношение сторон : 2,40:1
Режим частоты кадров : Постоянный
Частота кадров : 23,976 (24000/1001) кадра/сек
Цветовое пространство : YUV
Субдискретизация насыщенности : 4:2:0
Битовая глубина : 12 бит
Бит/(Пиксели*Кадры) : 0.083
Размер потока : 2,78 Гбайт (86%)
Библиотека кодирования : x265 2.5+12-fcd9154fa4e2:[Windows][GCC 6.2.1][64 bit] 12bit
Настройки программы : cpuid=1049087 / frame-threads=2 / numa-pools=8 / wpp / no-pmode / no-pme / no-psnr / ssim / log-level=2 / input-csp=1 / input-res=1920×808 / interlace=0 / total-frames=185195 / level-idc=0 / high-tier=1 / uhd-bd=0 / ref=8 / allow-non-conformance / no-repeat-headers / annexb / no-aud / no-hrd / info / hash=0 / no-temporal-layers / no-open-gop / min-keyint=1 / keyint=480 / bframes=8 / b-adapt=2 / b-pyramid / bframe-bias=0 / rc-lookahead=48 / lookahead-slices=0 / scenecut=0 / no-intra-refresh / ctu=64 / min-cu-size=8 / rect / no-amp / max-tu-size=32 / tu-inter-depth=2 / tu-intra-depth=2 / limit-tu=0 / rdoq-level=1 / dynamic-rd=0.00 / ssim-rd / signhide / no-tskip / nr-intra=0 / nr-inter=0 / no-constrained-intra / strong-intra-smoothing / max-merge=4 / limit-refs=3 / limit-modes / me=3 / subme=5 / merange=57 / temporal-mvp / weightp / no-weightb / no-analyze-src-pics / deblock=-3:-2 / no-sao / no-sao-non-deblock / rd=4 / no-early-skip / rskip / no-fast-intra / no-tskip-fast / no-cu-lossless / b-intra / no-splitrd-skip / rdpenalty=2 / psy-rd=0.00 / psy-rdoq=7.00 / no-rd-refine / analysis-reuse-mode=0 / no-lossless / cbqpoffs=0 / crqpoffs=0 / rc=crf / crf=19.8 / qcomp=0.80 / qpstep=3 / stats-write=0 / stats-read=0 / ipratio=1.10 / pbratio=1.30 / aq-mode=1 / aq-strength=0.10 / cutree / zone-count=0 / no-strict-cbr / qg-size=32 / no-rc-grain / qpmax=69 / qpmin=0 / no-const-vbv / sar=0 / overscan=0 / videoformat=5 / range=0 / colorprim=1 / transfer=1 / colormatrix=1 / chromaloc=0 / display-window=0 / max-cll=0,0 / min-luma=0 / max-luma=4095 / log2-max-poc-lsb=8 / vui-timing-info / vui-hrd-info / slices=1 / opt-qp-pps / opt-ref-list-length-pps / no-multi-pass-opt-rps / scenecut-bias=0.05 / no-opt-cu-delta-qp / aq-motion / no-hdr / no-hdr-opt / no-dhdr10-opt / analysis-reuse-level=5 / scale-factor=0 / refine-intra=0 / refine-inter=0 / refine-mv=0 / no-limit-sao / ctu-info=0
Default : Да
Forced : Нет
Цветовой диапазон : Limited
Основные цвета : BT.709
Характеристики трансфера : BT.709
Коэффициенты матрицы : BT.709

Аудио
Идентификатор : 2
Формат : AC-3
Формат/Информация : Audio Coding 3
Расширение режима : CM (complete main)
Параметр Endianness формата : Big
Идентификатор кодека : A_AC3
Продолжительность : 2 ч. 8 м.
Вид битрейта : Постоянный
Битрейт : 448 Кбит/сек
Каналы : 6 каналов
Расположение каналов : Front: L C R, Side: L R, LFE
Частота : 48,0 КГц
Частота кадров : 31,250 кадров/сек (1536 spf)
Битовая глубина : 16 бит
Метод сжатия : С потерями
Размер потока : 413 Мбайт (12%)
Заголовок : дубляж
Язык : Russian
Default : Да
Forced : Нет

Текст #1
Идентификатор : 3
Формат : UTF-8
Идентификатор кодека : S_TEXT/UTF8
Идентификатор кодека/Информация : UTF-8 Plain Text
Заголовок : на места без перевода
Язык : Russian
Default : Да
Forced : Да

Текст #2
Идентификатор : 4
Формат : UTF-8
Идентификатор кодека : S_TEXT/UTF8
Идентификатор кодека/Информация : UTF-8 Plain Text
Заголовок : полные
Язык : Russian
Default : Нет
Forced : Нет

Меню
00:00:00.000 : :01
00:02:55.466 : :02
00:04:50.665 : :03
00:08:34.180 : :04
00:11:49.875 : :05
00:13:04.575 : :06
00:15:57.998 : :07
00:18:25.979 : :08
00:23:48.051 : :09
00:25:37.327 : :10
00:29:53.750 : :11
00:32:25.276 : :12
00:33:47.900 : :13
00:37:01.469 : :14
00:38:49.618 : :15
00:42:46.021 : :16
00:45:03.867 : :17
00:47:42.276 : :18
00:53:47.557 : :19
00:57:28.194 : :20
01:03:29.514 : :21
01:05:21.876 : :22
01:10:27.932 : :23
01:13:10.219 : :24
01:15:01.955 : :25
01:16:58.196 : :26
01:23:03.812 : :27
01:25:57.402 : :28
01:31:21.309 : :29
01:34:38.798 : :30
01:36:27.948 : :31
01:39:59.994 : :32
01:44:07.866 : :33
01:50:31.082 : :34
01:58:21.219 : :35
01:59:38.462 : :36

Скриншоты

BDRip-HEVC———-vs———-Blu-Ray Disc

СЭМПЛ

Что такое HEVC и как его смотреть?

Что такое HEVC

H.265/HEVC (High Efficiency Video Coding) — это новый стандарт кодирования видео.
Стандарт H.265/HEVC является логическим продолжением стандарта H.264/AVC (Advanced Video Coding), и харакетризуется более эффективными алгоритмами сжатия, а также поддержкой высокого разрешения вплоть до 8K UHD (8192×4320).
Первая версия стандарта H.265 была опубликована в начале 2013 года.

Как смотреть HEVC

Любителям решения из коробки — установить последнюю версию на выбор:
Media Player Classic — Black Edition (MPC-BE)
VLC media player
Daum Pot Player
GOM Media Player

Любителям WMP и других плееров, использующих по умолчанию для воспроизведения системные кодеки+сплитеры установить последнюю версию LAV Filters;
любой другой кодек-пак, в котором присутствует LAV Filters, например K-Lite Codec Pack версии 10.1.0 и выше.

Любимые плееры, не использующии по умолчанию для воспроизведения системные кодеки+сплитеры, нужно перенастроить на использование оных.


Скачать Kingsman_The_Secret_Service_2014_BDRip_HEVCM12P.torrent

просмотры: 0

Оставьте первый комментарий

Оставить комментарий

Ваш электронный адрес не будет опубликован.


*