Стена / The Wall (2017) BDRip-AVC от OlLanDGroup | L1

Стена / The Wall
«This isn't war. It's a game…»


Год выпуска: 2017
Страна: США
Производство: Amazon Studios, Big Indie Pictures, Picrow
Жанр: Триллер, драма, военный

Режиссёр: Даг Лайман
В ролях: Аарон Тейлор-Джонсон, Джон Сина, Спенсер Томас, Лэйт Накли

Перевод: Любительский (одноголосный, закадровый) | BadBajo
Субтитры: Английские

Описание: Американский стрелок оказывается в ловушке за небольшой стеной и под прицелом своего противника. Герой ловит вражескую радиочастоту и общается с иракским снайпером. Живым с поля боя уйдет лишь один из них.

Качество: BDRip-AVC
Продолжительность: 01:29:54

Формат: MKV
Видео кодек: MPEG-4 AVC
Аудио кодек: AC3
Видео: 720×302 (2.40:1), 23.976 fps, x264 ~1874 kbps avg, 0.359 bit/pixel
Аудио: 48 kHz, AC3 Dolby Digital, 3/2 (L,C,R,l,r) + LFE ch, ~384.00 kbps avg | BadBajo

Дата премьеры (мир): 9 марта 2017

Релиз от: Rip by:

MediaInfo

Общее
Уникальный идентификатор : 182295431197156362428109260289927665832 (0x8924D2ADF3121C69AF4C74C4AEA1D8A8)
Полное имя : D:The.Wall.2017.BDRip(AVC).OlLanDGroup.mkv
Формат : Matroska
Версия формата : Version 2
Размер файла : 1,42 Гбайт
Продолжительность : 1 ч. 29 м.
Общий поток : 2260 Кбит/сек
Название фильма : The.Wall.2017 — TorpedoUK
Дата кодирования : UTC 2017-08-10 14:33:11
Программа кодирования : mkvmerge v7.8.0 ('River Man') 32bit built on Apr 3 2015 12:11:22
Библиотека кодирования : libebml v1.3.1 + libmatroska v1.4.2
Attachments : poster.jpg

Видео
Идентификатор : 1
Формат : AVC
Формат/Информация : Advanced Video Codec
Профиль формата : [email protected]
Параметр CABAC формата : Да
Параметр ReFrames формата : 10 кадров
Идентификатор кодека : V_MPEG4/ISO/AVC
Продолжительность : 1 ч. 29 м.
Битрейт : 1874 Кбит/сек
Ширина : 720 пикселей
Высота : 302 пикселя
Соотношение сторон : 2,40:1
Режим частоты кадров : Постоянный
Частота кадров : 23,976 (24000/1001) кадра/сек
Цветовое пространство : YUV
Субдискретизация насыщенности : 4:2:0
Битовая глубина : 8 бит
Тип развёртки : Прогрессивная
Бит/(Пиксели*Кадры) : 0.359
Размер потока : 1,15 Гбайт (81%)
Библиотека кодирования : x264 core 146 r2538 121396c
Настройки программы : cabac=1 / ref=10 / deblock=1:-3:-3 / analyse=0x3:0x133 / me=umh / subme=11 / psy=1 / psy_rd=1.00:0.07 / mixed_ref=1 / me_range=48 / chroma_me=1 / trellis=2 / 8x8dct=1 / cqm=0 / deadzone=21,11 / fast_pskip=0 / chroma_qp_offset=-3 / threads=6 / lookahead_threads=1 / sliced_threads=0 / nr=0 / decimate=0 / interlaced=0 / bluray_compat=0 / constrained_intra=0 / bframes=10 / b_pyramid=2 / b_adapt=2 / b_bias=0 / direct=3 / weightb=1 / open_gop=0 / weightp=2 / keyint=240 / keyint_min=23 / scenecut=40 / intra_refresh=0 / rc_lookahead=40 / rc=2pass / mbtree=0 / bitrate=1874 / ratetol=1.0 / qcomp=0.60 / qpmin=0 / qpmax=69 / qpstep=4 / cplxblur=20.0 / qblur=0.5 / vbv_maxrate=50000 / vbv_bufsize=62500 / nal_hrd=none / filler=0 / ip_ratio=1.40 / pb_ratio=1.30 / aq=1:1.00
Default : Да
Forced : Нет

Аудио
Идентификатор : 2
Формат : AC-3
Формат/Информация : Audio Coding 3
Расширение режима : CM (complete main)
Параметр Endianness формата : Big
Идентификатор кодека : A_AC3
Продолжительность : 1 ч. 29 м.
Вид битрейта : Постоянный
Битрейт : 384 Кбит/сек
Каналы : 6 каналов
Расположение каналов : Front: L C R, Side: L R, LFE
Частота : 48,0 КГц
Частота кадров : 31,250 кадров/сек (1536 spf)
Битовая глубина : 16 бит
Метод сжатия : С потерями
Размер потока : 247 Мбайт (17%)
Заголовок : AVO (BadBajo)
Язык : Russian
Default : Нет
Forced : Нет

Текст
Идентификатор : 3
Формат : UTF-8
Идентификатор кодека : S_TEXT/UTF8
Идентификатор кодека/Информация : UTF-8 Plain Text
Заголовок : Full
Язык : English
Default : Нет
Forced : Нет

Меню
00:00:00.000 : en:Chapter 1
00:04:02.117 : en:Chapter 2
00:09:58.223 : en:Chapter 3
00:16:55.932 : en:Chapter 4
00:21:46.597 : en:Chapter 5
00:25:48.922 : en:Chapter 6
00:33:11.698 : en:Chapter 7
00:39:57.645 : en:Chapter 8
00:45:39.904 : en:Chapter 9
00:49:36.223 : en:Chapter 10
00:56:13.620 : en:Chapter 11
01:01:12.752 : en:Chapter 12
01:07:27.627 : en:Chapter 13
01:13:19.103 : en:Chapter 14
01:17:43.576 : en:Chapter 15
01:25:36.715 : en:Chapter 16

Скриншоты




Скачать The.Wall.2017.BDRipAVC.OlLanDGroup.mkv.torrent

просмотры: 0

Оставьте первый комментарий

Оставить комментарий

Ваш электронный адрес не будет опубликован.


*