Молодые стрелки 2 / Young Guns II (1990) HDTVRip-AVC от k.e.n & NNMClub | P, A

Молодые стрелки 2 / Young Guns II (1990) HDTVRip


Производство: США, Morgan Creek Productions, Film Partners 1
Жанр: Вестерн, Боевик

Режиссер: Джеф Мерфи
Актеры: Эмилио Эстевез, Кифер Сазерленд, Лу Даймонд Филлипс, Кристиан Слэйтер, Уильям Л. Петерсен, Алан Рак, Р. Д. Колл, Джеймс Коберн, Бэлтазар Гетти, Джек Кихоу, Роберт Неппер, Том Курландер, Вигго Мортенсен, Леон Риппи

Описание:
В Нью-Мексико по-прежнему властвуют законы пограничных территорий, а точнее, царит полное беззаконие. Единственный, кто готов сражаться за справедливость — легендарный Билли Кид, безжалостный к врагам и не знающий, что такое промах.
Вместе с новым приятелем Дэйвом Билли вытаскивает из тюрьмы оставшихся в живых друзей: Дока и Чавеса. Слава о подвигах парней вновь гремит на всю Америку.
Тогда местные власти и богачи назначают за их головы щедрую награду, но Билли и его друзей не так то просто загнать в угол…

Релиз от: k.e.n & NNMClub
Продолжительность: 01:44:00
Качество видео: HDTVRip-AVC
Перевод: Профессиональный (многоголосый, закадровый) х2, авторский (одноголосый, закадровый) А.Гаврилов
Язык субтитров: Английский
Вид субтитров: Вшитые

Видео: AVC, 1024×432 (2.35:1), 23.976 fps, 2 400 Kbps (0.226 bit/pixel)
Аудио #1: AC-3, 48.0 KHz, 2 ch, 192 Kbps, CBR (Russian) — многоголосый (Премьер)
Аудио #2: AC-3, 48.0 KHz, 2 ch, 192 Kbps, CBR (Russian) — многоголосый (SDI Media)
Аудио #3: AC-3, 48.0 KHz, 2 ch, 192 Kbps, CBR (Russian) — авторский
Аудио #4: AC-3, 48.0 KHz, 6 ch, 384 Kbps, CBR (English) — оригинал

Mediainfo:
Формат : Matroska
Версия формата : Version 2
Размер файла : 2,44 Гбайт
Продолжительность : 1 ч. 44 м.
Общий поток : 3361 Кбит/сек
Название фильма : Young.Guns.II.1990
Дата кодирования : UTC 2015-11-26 23:41:45
Программа кодирования : mkvmerge v5.3.0 ('I could have danced') built on Feb 9 2012 10:38:07
Библиотека кодирования : libebml v1.2.3 + libmatroska v1.3.0
Attachment : Yes

Видео
Идентификатор : 1
Формат : AVC
Формат/Информация : Advanced Video Codec
Профиль формата : [email protected]
Параметр CABAC формата : Да
Параметр ReFrames формата : 9 кадров
Идентификатор кодека : V_MPEG4/ISO/AVC
Продолжительность : 1 ч. 44 м.
Битрейт : 2400 Кбит/сек
Ширина : 1024 пикселя
Высота : 432 пикселя
Соотношение сторон : 2,40:1
Режим частоты кадров : Постоянный
Частота кадров : 23,976 кадра/сек
Цветовое пространство : YUV
Субдискретизация насыщенности : 4:2:0
Битовая глубина : 8 бит
Тип развёртки : Прогрессивная
Бит/(Пиксели*Кадры) : 0.226
Размер потока : 1,70 Гбайт (69%)
Библиотека кодирования : x264 core 146 r2538 121396c
Настройки программы : cabac=1 / ref=9 / deblock=1:-3:-2 / analyse=0x3:0x133 / me=umh / subme=10 / psy=1 / psy_rd=1.00:0.00 / mixed_ref=1 / me_range=32 / chroma_me=1 / trellis=2 / 8x8dct=1 / cqm=0 / deadzone=21,11 / fast_pskip=0 / chroma_qp_offset=-2 / threads=12 / lookahead_threads=2 / sliced_threads=0 / nr=0 / decimate=0 / interlaced=0 / bluray_compat=0 / constrained_intra=0 / bframes=8 / b_pyramid=2 / b_adapt=2 / b_bias=0 / direct=3 / weightb=1 / open_gop=0 / weightp=2 / keyint=240 / keyint_min=23 / scenecut=40 / intra_refresh=0 / rc=2pass / mbtree=0 / bitrate=2400 / ratetol=1.0 / qcomp=0.60 / qpmin=0 / qpmax=69 / qpstep=4 / cplxblur=20.0 / qblur=0.5 / ip_ratio=1.40 / pb_ratio=1.30 / aq=1:0.80
Default : Да
Forced : Нет

Аудио #1
Идентификатор : 2
Формат : AC-3
Формат/Информация : Audio Coding 3
Расширение режима : CM (complete main)
Параметр Endianness формата : Big
Идентификатор кодека : A_AC3
Продолжительность : 1 ч. 44 м.
Вид битрейта : Постоянный
Битрейт : 192 Кбит/сек
Каналы : 2 канала
Расположение каналов : Front: L R
Частота : 48,0 КГц
Битовая глубина : 16 бит
Метод сжатия : С потерями
Размер потока : 143 Мбайт (6%)
Заголовок : Профессиональный многоголосый — |Премьер|
Язык : Russian
Default : Да
Forced : Нет

Аудио #2
Идентификатор : 3
Формат : AC-3
Формат/Информация : Audio Coding 3
Расширение режима : CM (complete main)
Параметр Endianness формата : Big
Идентификатор кодека : A_AC3
Продолжительность : 1 ч. 44 м.
Вид битрейта : Постоянный
Битрейт : 192 Кбит/сек
Каналы : 2 канала
Расположение каналов : Front: L R
Частота : 48,0 КГц
Битовая глубина : 16 бит
Метод сжатия : С потерями
Размер потока : 143 Мбайт (6%)
Заголовок : Профессиональный многоголосый — SDI Media
Язык : Russian
Default : Нет
Forced : Нет

Аудио #3
Идентификатор : 4
Формат : AC-3
Формат/Информация : Audio Coding 3
Расширение режима : CM (complete main)
Параметр Endianness формата : Big
Идентификатор кодека : A_AC3
Продолжительность : 1 ч. 44 м.
Вид битрейта : Постоянный
Битрейт : 192 Кбит/сек
Каналы : 2 канала
Расположение каналов : Front: L R
Частота : 48,0 КГц
Битовая глубина : 16 бит
Метод сжатия : С потерями
Размер потока : 143 Мбайт (6%)
Заголовок : Авторский — Андрей Гаврилов
Язык : Russian
Default : Нет
Forced : Нет

Аудио #4
Идентификатор : 5
Формат : AC-3
Формат/Информация : Audio Coding 3
Расширение режима : CM (complete main)
Параметр Endianness формата : Big
Идентификатор кодека : A_AC3
Продолжительность : 1 ч. 44 м.
Вид битрейта : Постоянный
Битрейт : 384 Кбит/сек
Каналы : 6 каналов
Расположение каналов : Front: L C R, Side: L R, LFE
Частота : 48,0 КГц
Битовая глубина : 16 бит
Метод сжатия : С потерями
Задержка видео : 10 с.
Размер потока : 286 Мбайт (11%)
Язык : English
Default : Нет
Forced : Нет

Текст
Идентификатор : 6
Формат : UTF-8
Идентификатор кодека : S_TEXT/UTF8
Идентификатор кодека/Информация : UTF-8 Plain Text
Язык : English
Default : Да
Forced : Нет

Меню
00:00:00.000 : ru:Глава 1
00:03:04.040 : ru:Глава 2
00:07:04.040 : ru:Глава 3
00:12:07.330 : ru:Глава 3
00:17:07.330 : ru:Глава 4
00:22:07.330 : ru:Глава 5
00:28:07.330 : ru:Глава 6
00:33:07.330 : ru:Глава 7
00:38:07.330 : ru:Глава 8
00:43:07.330 : ru:Глава 9
00:49:07.330 : ru:Глава 10
00:54:07.330 : ru:Глава 11
00:59:07.330 : ru:Глава 12
01:04:07.330 : ru:Глава 13
01:09:07.330 : ru:Глава 14
01:14:07.330 : ru:Глава 15
01:19:07.330 : ru:Глава 16
01:23:07.330 : ru:Глава 17
01:28:07.330 : ru:Глава 18
01:55:07.330 : ru:Глава 17

Скриншоты:


Скачать Molodyie_strelki-2.mkv.torrent

просмотры: 0

Оставьте первый комментарий

Оставить комментарий

Ваш электронный адрес не будет опубликован.


*