Повар, вор, его жена и ее любовник / The Cook, the Thief, His Wife & Her Lover (1989) HDRip-AVC | P, P2, A

Информация о фильме
Название: Повар, вор, его жена и её любовник
Оригинальное название: The Cook, the Thief, His Wife & Her Lover
Год выхода: 1989
Жанр: драма, криминал
Режиссер: Питер Гринуэй
Композитор: Майкл Найман
В ролях: Ришар Боренже, Майкл Гэмбон, Хелен Миррен, Алан Ховард, Тим Рот, Киран Хайндс, Гари Олсен, Ивэн Стюарт, Роджер Эштон-Гриффитс, Рон Кук

О фильме:
Предводитель одной из преступных группировок каждый вечер приходит со своей женой и своими сообщниками во французский ресторан, который является его собственностью. Устав от постоянных издевательств и унижений со стороны мужа, жена находит себе любовника среди посетителей ресторана и занимается с ним любовью с молчаливого согласия повара.

Страна: Нидерланды, Великобритания, Франция
Студия: Allarts, Allarts Cook, Elsevier-Vendex Film Beheer, Erato Films, Films Inc.
Продолжительность: 02:04:30
Перевод: Профессиональный двухголосый, закадровый [НТВ], профессиональный многоголосный, закадровый [CТС], авторский [В.Горчаков]

Файл
Кодек: H.264
Качество: HDRip-AVC
Видео: AVC, 1024×432 (2.35:1), 24 fps ~ 3030 Kbps
Звук:
AC3, 48 KHz, 2 ch ~ 192 Kb/s (НТВ)
AC3, 48 KHz, 2 ch ~ 192 Kb/s (СТС)
AC3, 48 KHz, 2 ch ~ 192 Kb/s (Горчаков)
AC3, 48 KHz, 2 ch ~ 192 Kb/s (английский)
Субтитры: русские (перевод ThePooh & Co), английские

MI:

Общее
Уникальный идентификатор : 177566824311524895335051400982466732652 (0x8596205C37BF0272829985569645226C)
Полное имя : Q:TorFThe Cook_The Thief_1989[Peter Greenaway].mkv
Формат : Matroska
Версия формата : Version 2
Размер файла : 3,29 Гбайт
Продолжительность : 2 ч. 4 м.
Общий поток : 3785 Кбит/сек
Дата кодирования : UTC 2017-08-27 15:35:21
Программа кодирования : mkvmerge v5.4.0 ('Piper') built on Mar 10 2012 13:34:39
Библиотека кодирования : libebml v1.2.3 + libmatroska v1.3.0

Видео
Идентификатор : 1
Формат : AVC
Формат/Информация : Advanced Video Codec
Профиль формата : [email protected]
Параметр CABAC формата : Да
Параметр ReFrames формата : 7 кадров
Идентификатор кодека : V_MPEG4/ISO/AVC
Продолжительность : 2 ч. 4 м.
Битрейт : 3031 Кбит/сек
Ширина : 1024 пикселя
Высота : 432 пикселя
Соотношение сторон : 2,35:1
Частота кадров : 24,000 кадра/сек
Цветовое пространство : YUV
Субдискретизация насыщенности : 4:2:0
Битовая глубина : 8 бит
Тип развёртки : Прогрессивная
Бит/(Пиксели*Кадры) : 0.285
Размер потока : 2,56 Гбайт (78%)
Заголовок : The Cook, The Thief, His Wife and Her Lover
Библиотека кодирования : x264 core 119 r2106 07efeb4
Настройки программы : cabac=1 / ref=7 / deblock=1:0:0 / analyse=0x3:0x113 / me=dia / subme=10 / psy=1 / psy_rd=1.00:0.00 / mixed_ref=1 / me_range=16 / chroma_me=1 / trellis=2 / 8x8dct=1 / cqm=0 / deadzone=21,11 / fast_pskip=1 / chroma_qp_offset=-2 / threads=3 / sliced_threads=0 / nr=0 / decimate=1 / interlaced=0 / bluray_compat=0 / constrained_intra=0 / bframes=4 / b_pyramid=2 / b_adapt=2 / b_bias=0 / direct=3 / weightb=1 / open_gop=1 / weightp=2 / keyint=250 / keyint_min=23 / scenecut=40 / intra_refresh=0 / rc_lookahead=40 / rc=2pass / mbtree=1 / bitrate=3031 / ratetol=1.0 / qcomp=0.60 / qpmin=0 / qpmax=69 / qpstep=4 / cplxblur=20.0 / qblur=0.5 / ip_ratio=1.40 / aq=1:1.00
Язык : English
Default : Да
Forced : Нет

Аудио #1
Идентификатор : 2
Формат : AC-3
Формат/Информация : Audio Coding 3
Расширение режима : CM (complete main)
Идентификатор кодека : A_AC3
Продолжительность : 2 ч. 4 м.
Вид битрейта : Постоянный
Битрейт : 192 Кбит/сек
Каналы : 2 канала
Расположение каналов : Front: L R
Частота : 48,0 КГц
Битовая глубина : 16 бит
Метод сжатия : С потерями
Размер потока : 171 Мбайт (5%)
Заголовок : NTV
Язык : Russian
Default : Да
Forced : Нет

Аудио #2
Идентификатор : 3
Формат : AC-3
Формат/Информация : Audio Coding 3
Расширение режима : CM (complete main)
Идентификатор кодека : A_AC3
Продолжительность : 2 ч. 4 м.
Вид битрейта : Постоянный
Битрейт : 192 Кбит/сек
Каналы : 2 канала
Расположение каналов : Front: L R
Частота : 48,0 КГц
Битовая глубина : 16 бит
Метод сжатия : С потерями
Размер потока : 171 Мбайт (5%)
Заголовок : CTC
Язык : Russian
Default : Нет
Forced : Нет

Аудио #3
Идентификатор : 4
Формат : AC-3
Формат/Информация : Audio Coding 3
Расширение режима : CM (complete main)
Идентификатор кодека : A_AC3
Продолжительность : 2 ч. 4 м.
Вид битрейта : Постоянный
Битрейт : 192 Кбит/сек
Каналы : 2 канала
Расположение каналов : Front: L R
Частота : 48,0 КГц
Битовая глубина : 16 бит
Метод сжатия : С потерями
Размер потока : 171 Мбайт (5%)
Заголовок : AVO — ГОРЧАКОВ -AC3 192k
Язык : Russian
Default : Нет
Forced : Нет

Аудио #4
Идентификатор : 5
Формат : AC-3
Формат/Информация : Audio Coding 3
Расширение режима : CM (complete main)
Идентификатор кодека : A_AC3
Продолжительность : 2 ч. 4 м.
Вид битрейта : Постоянный
Битрейт : 192 Кбит/сек
Каналы : 2 канала
Расположение каналов : Front: L R
Частота : 48,0 КГц
Битовая глубина : 16 бит
Метод сжатия : С потерями
Размер потока : 171 Мбайт (5%)
Заголовок : Original — AC3 192k
Язык : English
Default : Нет
Forced : Нет

Текст #1
Идентификатор : 6
Формат : ASS
Идентификатор кодека : S_TEXT/ASS
Идентификатор кодека/Информация : Advanced Sub Station Alpha
Метод сжатия : Без потерь
Заголовок : ThePooh & Co
Язык : Russian
Default : Нет
Forced : Нет

Текст #2
Идентификатор : 7
Формат : UTF-8
Идентификатор кодека : S_TEXT/UTF8
Идентификатор кодека/Информация : UTF-8 Plain Text
Язык : English
Default : Нет
Forced : Нет

Скриншоты


Скачать The_Cook_The_Thief_1989Peter_Greenaway.mkv.torrent

просмотры: 0

Оставьте первый комментарий

Оставить комментарий

Ваш электронный адрес не будет опубликован.


*