Эксперименты Лэйн / Serial Experiments Lain [01-13] (1998) DVDRip | D

Информация о фильме
Название: Эксперименты Лэйн
Оригинальное название: Serial Experiments Lain
Год выхода: 1998
Жанр: аниме, мультфильм, фантастика, триллер, детектив
Режиссер: Рютаро Накамура, Лия Сарджент, Дзёхэй Мацура
В ролях: Каори Симидзу, Ali Moriizumi, Аяко Кавасуми, Йоко Асада, Чихару Тезука, Манаби Мидзуно, Рюносукэ Обаяси, Бэрри Стиглер, Рэй Игараси, Кейто Такимото

О фильме:
Сериал начинается с самоубийства Тисы Ёмоды, девочки, которая училась с Лэйн в одной школе. Несколько одноклассников Тисы получают странное письмо по электронной почте, отправленное как будто самой Тисой уже после её смерти, в котором она говорит, что лишь покинула своё тело, а её сознание теперь живёт в Сети. Лэйн, которая до этого не интересовалась компьютерами, вдруг решает тоже проверить свою почту, которую завел для неё отец. Оказывается, что хоть она никогда не бывала в сети, но её там знают. Лэйн решает узнать правду об этом самоубийстве и себе.
Авторы демонстрируют зрителю тонкие грани сознания, когда привычный реальный мир оказывается не таким реальным, а любыми событиями можно управлять, всего лишь изменяя память людей. Есть ли Бог и каков он? Что такое «я»? Как отличить реальность от иллюзии? Философские вопросы, поднимаемые в сериале тесно вплетаются в сферу информационных технологий, где правят разум и логика. Что реальнее, мир сетевых технологий или мир, их порождающий? Или быть может мир является порождением Сети? Ответ на эти вопросы можно искать, определившись с жанром сериала. Это киберпанк, и такая постановка вопросов характерна для жанра в целом.

Список серий:
01. Странно
02. Девочки
03. Психе
04. Религия
05. Искажение
06. Дети
07. Общество
08. Слухи
09. Протокол
10. Любовь
11. Инфорнография
12. Ландшафт
13. Эго


Страна: Япония
Студия: Triangle Staff, Pioneer LDC
Продолжительность: ~00:23:00 серия
Перевод: Дублированный

Файл
Кодек: XviD / AC3
Качество: DVDRip
Видео: XviD, 640×480, 25 fps, 1532 kbps
Звук: AC3, 48 kHz, 2/0 (L,R) ch, 384.00 kbps

Скриншоты

MI
General
Complete name : ***Эпизод 01.avi
Format : AVI
Format/Info : Audio Video Interleave
File size : 317 MiB
Duration : 22mn 59s
Overall bit rate : 1 926 Kbps
Writing application : VirtualDubMod 1.5.10.2 (build 2540/release)
Writing library : VirtualDub-MPEG2 build 24586/release
Video
ID : 0
Format : MPEG-4 Visual
Format profile : Advanced [email protected]
Format settings, BVOP : 1
Format settings, QPel : No
Format settings, GMC : No warppoints
Format settings, Matrix : Default (MPEG)
Codec ID : XVID
Codec ID/Hint : XviD
Duration : 22mn 59s
Bit rate : 1 532 Kbps
Width : 640 pixels
Height : 480 pixels
Display aspect ratio : 4:3
Frame rate : 25.000 fps
Color space : YUV
Chroma subsampling : 4:2:0
Bit depth : 8 bits
Scan type : Progressive
Compression mode : Lossy
Bits/(Pixel*Frame) : 0.200
Stream size : 252 MiB (80%)
Writing library : XviD 1.2.1 (UTC 2008-12-04)
Audio
ID : 1
Format : AC-3
Format/Info : Audio Coding 3
Mode extension : CM (complete main)
Format settings, Endianness : Big
Codec ID : 2000
Duration : 22mn 59s
Bit rate mode : Constant
Bit rate : 384 Kbps
Channel(s) : 2 channels
Channel positions : Front: L R
Sampling rate : 48.0 KHz
Compression mode : Lossy
Delay relative to video : 24ms
Stream size : 63.2 MiB (20%)
Alignment : Split accross interleaves
Interleave, duration : 40 ms (1.00 video frame)
Interleave, preload duratio : 500 ms


Скачать Serial Experiments.torrent

просмотры: 0

Оставьте первый комментарий

Оставить комментарий

Ваш электронный адрес не будет опубликован.


*