Сфера / Sphere (1998) BDRip-AVC от MegaPeer | D

Информация о фильме
Название: Сфера
Оригинальное название: Sphere
Год выхода: 1998
Жанр: фантастика, триллер, драма, детектив
Режиссер: Барри Левинсон
В ролях: Дастин Хоффман, Шэрон Стоун, Сэмюэл Л. Джексон, Питер Койот, Лив Шрайбер, Куин Латифа, Марга Гомес, Хьюи Льюис, Бернард Хок, Джеймс Пикенс мл.

О фильме:
На дне океана найден космический корабль. Рядом с находкой сооружается подводная станция, и на нее прибывает команда ученых-специалистов: доктор Норман Гудмэн, доктор Элизабет Гальперин, доктор Гарри Эдамс, доктор Тэд Филдинг и другие коллеги. Возглавляет отряд капитан Хэролд Барнс. Вскоре ученые обнаруживают внутри корабля гигантский блестящий шар. Им удается проникнуть внутрь сферы, хотя никаких дверей или каких-либо иных проемов не наблюдалось. После этого начались кошмары…

Страна: США
Студия: Warner Bros., Baltimore Pictures, Constant c Productions
Продолжительность: 02:14:12
Перевод: Дубляж

Файл
Кодек: AVC
Качество: BDRip-AVC |Blu-Ray 1080p|
Видео: 728×304, 712 kbps, 23,976 fps, 0,134 Bits/(Pixel*Frame)
Звук: AAC, 48 kHz, 2 ch, 64 kbps
Субтитры: русские, английские

MI
Общее
Unique ID : 202700998050186775443128613912660718695 (0x987ECACCFA2790B59C640A4D7BBCB467)
Complete name : D:Sphere.1998.BDRip-AVC.MegaPeer.mkv
Format : Matroska
Format version : Version 4 / Version 2
File size : 747 Мбайт
Duration : 2 ч. 14 м.
Overall bit rate : 778 Кбит/сек
Encoded date : UTC 2017-08-24 07:04:21
Writing application : mkvmerge v15.0.0 ('Duel with the Devil') 64-bit
Writing library : libebml v1.3.5 + libmatroska v1.4.5

Видео
ID : 1
Format : AVC
Format/Info : Advanced Video Codec
Format profile : [email protected]
Format settings, CABAC : Да
Format settings, RefFrames : 14 кадров
Codec ID : V_MPEG4/ISO/AVC
Duration : 2 ч. 14 м.
Bit rate : 712 Кбит/сек
Width : 728 пикселей
Height : 304 пикселя
Display aspect ratio : 2,40:1
Frame rate mode : Постоянный
Frame rate : 23,976 (24000/1001) кадра/сек
Color space : YUV
Chroma subsampling : 4:2:0
Bit depth : 8 бит
Scan type : Прогрессивная
Bits/(Pixel*Frame) : 0.134
Stream size : 683 Мбайт (92%)
Writing library : x264 core 152 r2851kMod ba24899
Encoding settings : cabac=1 / ref=14 / deblock=1:-3:-3 / analyse=0x3:0x133 / me=umh / subme=11 / psy=1 / fade_compensate=0.00 / psy_rd=1.00:0.00 / mixed_ref=1 / me_range=32 / chroma_me=1 / trellis=2 / 8x8dct=1 / cqm=0 / deadzone=21,11 / fast_pskip=0 / chroma_qp_offset=-2 / threads=9 / lookahead_threads=2 / sliced_threads=0 / nr=0 / decimate=0 / interlaced=0 / bluray_compat=0 / constrained_intra=0 / bframes=14 / b_pyramid=2 / b_adapt=2 / b_bias=0 / direct=3 / weightb=1 / open_gop=0 / weightp=2 / keyint=240 / keyint_min=23 / scenecut=40 / intra_refresh=0 / rc_lookahead=60 / rc=2pass / mbtree=0 / bitrate=712 / ratetol=1.0 / qcomp=0.60 / qpmin=0 / qpmax=51 / qpstep=4 / cplxblur=20.0 / qblur=0.5 / vbv_maxrate=50000 / vbv_bufsize=62500 / nal_hrd=none / filler=0 / ip_ratio=1.40 / pb_ratio=1.30 / aq=1:1.00
Default : Да
Forced : Нет

Аудио
ID : 2
Format : AAC
Format/Info : Advanced Audio Codec
Format profile : HE-AAC / LC
Codec ID : A_AAC
Duration : 2 ч. 14 м.
Bit rate : 64,0 Кбит/сек
Channel(s) : 2 канала
Channel positions : Front: L R
Sampling rate : 48,0 КГц / 24,0 КГц
Frame rate : 23,438 кадра/сек (1024 SPF)
Compression mode : С потерями
Delay relative to video : 31 мс.
Stream size : 61,4 Мбайт (8%)
Language : Russian
Default : Да
Forced : Нет

Текст #1
ID : 3
Format : UTF-8
Codec ID : S_TEXT/UTF8
Codec ID/Info : UTF-8 Plain Text
Duration : 2 ч. 8 м.
Bit rate : 101 бит/сек
Count of elements : 1785
Stream size : 95,2 Кбайт (0%)
Language : Russian
Default : Да
Forced : Нет

Текст #2
ID : 4
Format : UTF-8
Codec ID : S_TEXT/UTF8
Codec ID/Info : UTF-8 Plain Text
Duration : 2 ч. 10 м.
Bit rate : 68 бит/сек
Count of elements : 1881
Stream size : 65,5 Кбайт (0%)
Language : English
Default : Нет
Forced : Нет

Скриншоты

Релиз:


Скачать Sfera—Sphere-1998-BDRip-AVC—D.torrent

просмотры: 1

Оставьте первый комментарий

Оставить комментарий

Ваш электронный адрес не будет опубликован.


*