Возвращение живых мертвецов 3 / Return of the Living Dead 3 (1993) ВDRip 720p от k.e.n & NNMClub | P, A

Производство: США, Bandai Visual Co. Ltd., Ozla Productions
Жанр: Ужасы, Мелодрама
Продолжительность: 01:36:59
Перевод: Профессиональный (многоголосый, закадровый), авторский (одноголосый, закадровый)
Субтитры: Русский, английский
Режиссер: Брайан Юзна
Актеры: Кент МакКорд, Джеймс Т. Каллахан, Сара Дуглас, Мелинда Кларк, Эбигейл Ленц, Дж. Тревор Эдмонд, Джилл Андре, Майкл Декер, Билли Кэйн

Описание:
В секретной военной лаборатории проводятся эксперименты по воскрешению мертвецов и превращению их в смертоносное биологическое оружие. Двое молодых людей, Курт, сын руководителя этого необычного научного проекта, и его девушка Джули, становятся случайными свидетелями исследований, и сбегают, не увидев жуткого финала одного из опытов. Ребята попадают в ужасную аварию и Джули погибает. Но Курт знает, что предпринять — вернуть свою любимую из мертвых в лаборатории отца. Но совершенно не предполагает, какие кровавые события, за пределами самых кошмарных фантазий, ждут его впереди. Вместо любимой девушки он получает не поддающегося уничтожению монстра, чей укус превращает жертв в таких же зомби, жаждущих человеческой плоти.

Качество видео: ВDRip 720p
Видео: AVC, 1280×694 (16:9), 23.976 fps, 4 575 Kbps (0.215 bit/pixel)
Аудио #1: AC-3, 48.0 KHz, 6 ch, 448 Kbps, CBR (Russian) — многоголосый Велес (CP-Digital)
Аудио #2: AC-3, 48.0 KHz, 2 ch, 192 Kbps, CBR (Russian) — многоголосый FilmExport
Аудио #3: AC-3, 48.0 KHz, 2 ch, 192 Kbps, CBR (Russian) — авторский Карцев
Аудио #4: AC-3, 48.0 KHz, 2 ch, 192 Kbps, CBR (Russian) — авторский Живов
Аудио #5: AC-3, 48.0 KHz, 2 ch, 192 Kbps, CBR (Russian) — авторский Горчаков
Аудио #6: AC-3, 48.0 KHz, 2 ch, 192 Kbps, CBR (Russian) — авторский Дольский
Аудио #7: AC-3, 48.0 KHz, 6 ch, 448 Kbps, CBR (English) — оригинал

Mediainfo:
Формат : Matroska
Версия формата : Version 2
Размер файла : 4,37 Гбайт
Продолжительность : 1 ч. 36 м.
Общий поток : 6451 Кбит/сек
Дата кодирования : UTC 2017-01-03 13:15:57
Программа кодирования : mkvmerge v5.3.0 ('I could have danced') built on Feb 9 2012 10:38:07
Библиотека кодирования : libebml v1.2.3 + libmatroska v1.3.0
Attachments : poster 1.jpg

Видео
Идентификатор : 1
Формат : AVC
Формат/Информация : Advanced Video Codec
Профиль формата : [email protected]
Параметр CABAC формата : Да
Параметр ReFrames формата : 10 кадров
Идентификатор кодека : V_MPEG4/ISO/AVC
Продолжительность : 1 ч. 36 м.
Битрейт : 4575 Кбит/сек
Ширина : 1280 пикселей
Высота : 694 пикселя
Соотношение сторон : 1,85:1
Режим частоты кадров : Постоянный
Частота кадров : 23,976 кадра/сек
Цветовое пространство : YUV
Субдискретизация насыщенности : 4:2:0
Битовая глубина : 8 бит
Тип развёртки : Прогрессивная
Бит/(Пиксели*Кадры) : 0.215
Размер потока : 3,03 Гбайт (69%)
Библиотека кодирования : x264 core 146 r2538 121396c
Настройки программы : cabac=1 / ref=10 / deblock=1:-3:-3 / analyse=0x3:0x133 / me=umh / subme=11 / psy=1 / psy_rd=1.00:0.00 / mixed_ref=1 / me_range=32 / chroma_me=1 / trellis=2 / 8x8dct=1 / cqm=0 / deadzone=21,11 / fast_pskip=0 / chroma_qp_offset=-2 / threads=12 / lookahead_threads=2 / sliced_threads=0 / nr=0 / decimate=0 / interlaced=0 / bluray_compat=0 / constrained_intra=0 / bframes=8 / b_pyramid=2 / b_adapt=2 / b_bias=0 / direct=3 / weightb=1 / open_gop=0 / weightp=2 / keyint=240 / keyint_min=23 / scenecut=40 / intra_refresh=0 / rc=2pass / mbtree=0 / bitrate=4575 / ratetol=1.0 / qcomp=0.60 / qpmin=0 / qpmax=69 / qpstep=4 / cplxblur=20.0 / qblur=0.5 / ip_ratio=1.40 / pb_ratio=1.30 / aq=1:0.70
Язык : English
Default : Да
Forced : Нет

Аудио #1
Идентификатор : 2
Формат : AC-3
Формат/Информация : Audio Coding 3
Расширение режима : CM (complete main)
Параметр Endianness формата : Big
Идентификатор кодека : A_AC3
Продолжительность : 1 ч. 36 м.
Вид битрейта : Постоянный
Битрейт : 448 Кбит/сек
Каналы : 6 каналов
Расположение каналов : Front: L C R, Side: L R, LFE
Частота : 48,0 КГц
Частота кадров : 31,250 кадров/сек (1536 spf)
Битовая глубина : 16 бит
Метод сжатия : С потерями
Размер потока : 311 Мбайт (7%)
Заголовок : многоголосый Велес (CP-Digital))
Язык : Russian
Default : Нет
Forced : Нет

Аудио #2
Идентификатор : 3
Формат : AC-3
Формат/Информация : Audio Coding 3
Расширение режима : CM (complete main)
Параметр Endianness формата : Big
Идентификатор кодека : A_AC3
Продолжительность : 1 ч. 36 м.
Вид битрейта : Постоянный
Битрейт : 192 Кбит/сек
Каналы : 2 канала
Расположение каналов : Front: L R
Частота : 48,0 КГц
Частота кадров : 31,250 кадров/сек (1536 spf)
Битовая глубина : 16 бит
Метод сжатия : С потерями
Размер потока : 133 Мбайт (3%)
Заголовок : многоголосый FilmExport)
Язык : Russian
Default : Нет
Forced : Нет

Аудио #3
Идентификатор : 4
Формат : AC-3
Формат/Информация : Audio Coding 3
Расширение режима : CM (complete main)
Параметр Endianness формата : Big
Идентификатор кодека : A_AC3
Продолжительность : 1 ч. 36 м.
Вид битрейта : Постоянный
Битрейт : 192 Кбит/сек
Каналы : 2 канала
Расположение каналов : Front: L R
Частота : 48,0 КГц
Частота кадров : 31,250 кадров/сек (1536 spf)
Битовая глубина : 16 бит
Метод сжатия : С потерями
Размер потока : 133 Мбайт (3%)
Заголовок : авторский Карцев)
Язык : Russian
Default : Нет
Forced : Нет

Аудио #4
Идентификатор : 5
Формат : AC-3
Формат/Информация : Audio Coding 3
Расширение режима : CM (complete main)
Параметр Endianness формата : Big
Идентификатор кодека : A_AC3
Продолжительность : 1 ч. 36 м.
Вид битрейта : Постоянный
Битрейт : 192 Кбит/сек
Каналы : 2 канала
Расположение каналов : Front: L R
Частота : 48,0 КГц
Частота кадров : 31,250 кадров/сек (1536 spf)
Битовая глубина : 16 бит
Метод сжатия : С потерями
Размер потока : 133 Мбайт (3%)
Заголовок : авторский Живов)
Язык : Russian
Default : Нет
Forced : Нет

Аудио #5
Идентификатор : 6
Формат : AC-3
Формат/Информация : Audio Coding 3
Расширение режима : CM (complete main)
Параметр Endianness формата : Big
Идентификатор кодека : A_AC3
Продолжительность : 1 ч. 36 м.
Вид битрейта : Постоянный
Битрейт : 192 Кбит/сек
Каналы : 2 канала
Расположение каналов : Front: L R
Частота : 48,0 КГц
Частота кадров : 31,250 кадров/сек (1536 spf)
Битовая глубина : 16 бит
Метод сжатия : С потерями
Размер потока : 133 Мбайт (3%)
Заголовок : авторский Горчаков)
Язык : Russian
Default : Нет
Forced : Нет

Аудио #6
Идентификатор : 7
Формат : AC-3
Формат/Информация : Audio Coding 3
Расширение режима : CM (complete main)
Параметр Endianness формата : Big
Идентификатор кодека : A_AC3
Продолжительность : 1 ч. 36 м.
Вид битрейта : Постоянный
Битрейт : 192 Кбит/сек
Каналы : 2 канала
Расположение каналов : Front: L R
Частота : 48,0 КГц
Частота кадров : 31,250 кадров/сек (1536 spf)
Битовая глубина : 16 бит
Метод сжатия : С потерями
Размер потока : 133 Мбайт (3%)
Заголовок : авторский Дольский)
Язык : Russian
Default : Нет
Forced : Нет

Аудио #7
Идентификатор : 8
Формат : AC-3
Формат/Информация : Audio Coding 3
Расширение режима : CM (complete main)
Параметр Endianness формата : Big
Идентификатор кодека : A_AC3
Продолжительность : 1 ч. 36 м.
Вид битрейта : Постоянный
Битрейт : 448 Кбит/сек
Каналы : 6 каналов
Расположение каналов : Front: L C R, Side: L R, LFE
Частота : 48,0 КГц
Частота кадров : 31,250 кадров/сек (1536 spf)
Битовая глубина : 16 бит
Метод сжатия : С потерями
Размер потока : 311 Мбайт (7%)
Заголовок : Оригинал
Язык : English
Default : Нет
Forced : Нет

Текст #1
Идентификатор : 9
Формат : PGS
Режим смешивания : zlib
Идентификатор кодека : S_HDMV/PGS
Идентификатор кодека/Информация : Picture based subtitle format used on BDs/HD-DVDs
Язык : English
Default : Нет
Forced : Нет

Текст #2
Идентификатор : 10
Формат : PGS
Режим смешивания : zlib
Идентификатор кодека : S_HDMV/PGS
Идентификатор кодека/Информация : Picture based subtitle format used on BDs/HD-DVDs
Язык : Russian
Default : Нет
Forced : Нет

Меню
00:00:00.000 : :Chapter 01
00:07:49.092 : :Chapter 02
00:16:17.556 : :Chapter 03
00:24:31.259 : :Chapter 04
00:34:00.412 : :Chapter 05
00:41:17.555 : :Chapter 06
00:48:45.712 : :Chapter 07
00:54:52.913 : :Chapter 08
01:03:54.121 : :Chapter 09
01:12:49.573 : :Chapter 10
01:20:07.761 : :Chapter 11
01:33:34.734 : :Chapter 12
01:36:57.394 : :Chapter 13

Скриншоты:


Скачать Vozvrashchenie_zhivyih_mertvetsov_3.mkv.torrent

просмотры: 0

Оставьте первый комментарий

Оставить комментарий

Ваш электронный адрес не будет опубликован.


*