Силквуд / Silkwood (1983) BDRip 1080p | P2

Информация о фильме
Название: Силквуд
Оригинальное название: Silkwood
Год выхода: 1983
Жанр: Драма, биография
Режиссер: Майк Николс
В ролях: Мерил Стрип, Шер, Курт Расселл, Крейг Т. Нельсон, Джозеф Соммер, Рон Силвер, Дэвид Стрэтэйрн, Сьюди Бонд, Фред Уорд, Чарльз Хэллэхэн, Диана Скарвид

О фильме:
Штат Оклахома, начало 70-х. Карен Силквуд (Стрип), работница фабрики по очистки плутония, вступает в борьбу с администрацией, виноватой во многих нарушениях технологии и, как следствие, в радиоактивном заражении сотрудников…


Страна: США
Студия: ABC Motion Pictures
Продолжительность: 02:11:05
Перевод: Профессиональный (двухголосый) НТВ+

Файл
Кодек: MPEG-4 AVC
Качество: BDRip 1080p | P2
Видео: AVC/H.264, 1920х1040, ~11,6 Mbps
Звук:
Аудио 1: AC3, 2 ch, 384 Kbps — Русский
Аудио 2: DTS, 2 ch, 1509 Kbps — Английский
Субтитры: английские

Mediainfo
Общее
Уникальный идентификатор : 194448655663800302978337246958668486164 (0x924972E86A4F16BABF2A386249CC1614)
Полное имя : Silkwood.1983.BDRip.1080p.mkv
Формат : Matroska
Версия формата : Version 2
Размер файла : 12,4 Гбайт
Продолжительность : 2 ч. 11 м.
Общий поток : 13,5 Мбит/сек
Дата кодирования : UTC 2017-07-21 10:23:30
Программа кодирования : mkvmerge v4.0.0 ('The Stars were mine') сборка от Jun 6 2010 16:18:42
Библиотека кодирования : libebml v1.0.0 + libmatroska v1.0.0

Видео
Идентификатор : 1
Формат : AVC
Формат/Информация : Advanced Video Codec
Профиль формата : [email protected]
Параметр CABAC формата : Да
Параметр RefFrames формата : 4 кадра
Идентификатор кодека : V_MPEG4/ISO/AVC
Продолжительность : 2 ч. 11 м.
Битрейт : 11,6 Мбит/сек
Ширина : 1920 пикселей
Высота : 1040 пикселей
Соотношение сторон : 1,85:1
Режим частоты кадров : Постоянный
Частота кадров : 23,976 (24000/1001) кадра/сек
Цветовое пространство : YUV
Субдискретизация насыщенности : 4:2:0
Битовая глубина : 8 бит
Тип развёртки : Прогрессивная
Бит/(Пиксели*Кадры) : 0.243
Размер потока : 10,4 Гбайт (84%)
Библиотека кодирования : x264 core 152 r2851 ba24899
Настройки программы : cabac=1 / ref=4 / deblock=1:-3:-3 / analyse=0x3:0x113 / me=umh / subme=8 / psy=1 / psy_rd=1.00:0.00 / mixed_ref=1 / me_range=16 / chroma_me=1 / trellis=2 / 8x8dct=1 / cqm=0 / deadzone=21,11 / fast_pskip=0 / chroma_qp_offset=-2 / threads=18 / lookahead_threads=3 / sliced_threads=0 / nr=0 / decimate=1 / interlaced=0 / bluray_compat=0 / constrained_intra=0 / bframes=3 / b_pyramid=2 / b_adapt=1 / b_bias=0 / direct=1 / weightb=1 / open_gop=0 / weightp=2 / keyint=250 / keyint_min=23 / scenecut=40 / intra_refresh=0 / rc_lookahead=40 / rc=2pass / mbtree=1 / bitrate=11620 / ratetol=1.0 / qcomp=0.60 / qpmin=0 / qpmax=69 / qpstep=4 / cplxblur=20.0 / qblur=0.5 / ip_ratio=1.40 / aq=1:1.00
Язык : English
Default : Нет
Forced : Нет

Аудио #1
Идентификатор : 2
Формат : AC-3
Формат/Информация : Audio Coding 3
Параметр Endianness формата : Big
Идентификатор кодека : A_AC3
Продолжительность : 2 ч. 11 м.
Вид битрейта : Постоянный
Битрейт : 384 Кбит/сек
Каналы : 2 канала
Расположение каналов : Front: L R
Частота : 48,0 КГц
Частота кадров : 31,250 кадров/сек (1536 SPF)
Битовая глубина : 16 бит
Метод сжатия : С потерями
Размер потока : 360 Мбайт (3%)
Заголовок : DVO [HTB+]
Язык : Russian
ServiceKind : Complete Main
Default : Да
Forced : Нет

Аудио #2
Идентификатор : 3
Формат : DTS
Формат/Информация : Digital Theater Systems
Режим : 16
Параметр Endianness формата : Big
Идентификатор кодека : A_DTS
Продолжительность : 2 ч. 11 м.
Вид битрейта : Постоянный
Битрейт : 1509 Кбит/сек
Каналы : 2 канала
Расположение каналов : Front: L R
Частота : 48,0 КГц
Частота кадров : 93,750 кадра/сек (512 SPF)
Битовая глубина : 24 бит
Метод сжатия : С потерями
Задержка видео : 11 мс.
Размер потока : 1,38 Гбайт (11%)
Язык : English
Default : Нет
Forced : Нет

Текст
Идентификатор : 4
Формат : UTF-8
Идентификатор кодека : S_TEXT/UTF8
Идентификатор кодека/Информация : UTF-8 Plain Text
Язык : English
Default : Нет
Forced : Нет

Меню
00:00:00.000 : en:00:00:00.000
00:11:12.121 : en:00:11:12.121
00:27:50.587 : en:00:27:50.587
00:45:08.707 : en:00:45:08.707
01:01:02.285 : en:01:01:02.285
01:26:34.148 : en:01:26:34.148
01:42:44.951 : en:01:42:44.951
01:51:09.664 : en:01:51:09.664

Скриншоты


Скачать Silkwood.1983.BDRip.1080p.mkv.torrent

просмотры: 2

Оставьте первый комментарий

Оставить комментарий

Ваш электронный адрес не будет опубликован.


*