Срок давности [01-04 из 04] (2017) WEB-DLRip 1080p от MediaClub

Информация о фильме
Название: Срок давности
Год выхода: 2017
Жанр: Мелодрама, детектив
Режиссер: Максим Демченко
В ролях: Дарья Румянцева, Владимир Колганов, Сергей Радченко, Юлия Кудояр, Ольга Морозова, Евгений Авдеенко

О фильме:
Учительница Александра счастлива с мужем Антоном и дочкой Машей, любит свою работу. Жизнь ее омрачена только нехваткой денег и нелюбовью свекрови. Когда у Антона начинаются проблемы на работе, Александра, чтобы помочь мужу, устраивается репетитором в богатую семью. Придя на очередной урок, Саша обнаруживает тело матери своей ученицы рядом с открытым пустым сейфом. Испугавшись обвинений, женщина убегает, но вскоре к ней домой является полиция и находит в Сашиных вещах драгоценности покойной. Выйдя через 7 лет из тюрьмы, Александра понимает, что потеряла все: муж ушел к подруге, дочь считает, что мать ее бросила, на работу не берут, жить негде. Отец ученицы жаждет отомстить за убийство жены.

Страна: Украина, Россия
Студия: Студия ТелеМастер, ABC FILM
Продолжительность: 4 х ~ 00:45:00
Перевод: Не требуется

Файл
Кодек: h.264
Качество: WEB-DLRip 1080p
Видео: MPEG-4 AVC, ~ 5120 Кбит/с, 1920×1080
Звук: Русский (AC3, 2 ch, 256 Кбит/с)
Субтитры: Нет

Семпл

MI
General
Unique ID : 194060821626280010685104458537996520064 (0x91FEC136A81A23B595455E7CE3DE0A80)
Complete name : D:uTorrentSrok.davnosti.2017.WEB-DLRip.1080p.MediaClubSrok.davnosti.2017.(01.iz.04).WEB-DLRip.1080p.MediaClub.mkv
Format : Matroska
Format version : Version 4 / Version 2
File size : 1.65 GiB
Duration : 44 min 8 s
Overall bit rate : 5 360 kb/s
Encoded date : UTC 2017-09-11 09:10:46
Writing application : mkvmerge v15.0.0 ('Duel with the Devil') 64-bit
Writing library : libebml v1.3.5 + libmatroska v1.4.5

Video
ID : 1
Format : AVC
Format/Info : Advanced Video Codec
Format profile : [email protected]
Format settings, CABAC : Yes
Format settings, ReFrames : 4 frames
Codec ID : V_MPEG4/ISO/AVC
Duration : 44 min 8 s
Bit rate : 5 120 kb/s
Width : 1 920 pixels
Height : 1 080 pixels
Display aspect ratio : 16:9
Frame rate mode : Constant
Frame rate : 25.000 FPS
Color space : YUV
Chroma subsampling : 4:2:0
Bit depth : 8 bits
Scan type : Progressive
Bits/(Pixel*Frame) : 0.099
Stream size : 1.57 GiB (95%)
Title : WEB-DLRip by Silverok
Writing library : x264 core 142
Encoding settings : cabac=1 / ref=3 / deblock=1:0:0 / analyse=0x3:0x113 / me=hex / subme=7 / psy=1 / psy_rd=1.00:0.00 / mixed_ref=1 / me_range=16 / chroma_me=1 / trellis=1 / 8x8dct=1 / cqm=0 / deadzone=21,11 / fast_pskip=1 / chroma_qp_offset=-2 / threads=84 / lookahead_threads=8 / sliced_threads=0 / nr=0 / decimate=1 / interlaced=0 / bluray_compat=0 / constrained_intra=0 / bframes=6 / b_pyramid=2 / b_adapt=1 / b_bias=0 / direct=1 / weightb=1 / open_gop=0 / weightp=2 / keyint=50 / keyint_min=26 / scenecut=0 / intra_refresh=0 / rc_lookahead=40 / rc=2pass / mbtree=1 / bitrate=5120 / ratetol=1.0 / qcomp=0.60 / qpmin=0 / qpmax=69 / qpstep=4 / cplxblur=20.0 / qblur=0.5 / vbv_maxrate=7680 / vbv_bufsize=20480 / nal_hrd=none / filler=0 / ip_ratio=1.40 / aq=1:1.00
Default : Yes
Forced : No

Audio
ID : 2
Format : AC-3
Format/Info : Audio Coding 3
Format settings, Endianness : Big
Codec ID : A_AC3
Duration : 44 min 8 s
Bit rate mode : Constant
Bit rate : 256 kb/s
Channel(s) : 2 channels
Channel positions : Front: L R
Sampling rate : 48.0 kHz
Frame rate : 31.250 FPS (1536 spf)
Bit depth : 16 bits
Compression mode : Lossy
Stream size : 80.8 MiB (5%)
Language : Russian
Service kind : Complete Main
Default : Yes
Forced : No

Скриншоты

Релиз от: | Silverok


Скачать Srok.davnosti.2017.WEB-DLRip.1080p.MediaClub.torrent

просмотры: 0

Оставьте первый комментарий

Оставить комментарий

Ваш электронный адрес не будет опубликован.


*