Бэтмен: Маска Фантазма / Batman: Mask of the Phantasm (1993) HDRip-AVC by ~Romych~ | Open Matte | L2, A

Бэтмен: Маска Фантазма / Batman: Mask of the Phantasm

Год выпуска: 1993
Страна: США
Жанр: анимация, детектив, криминал, триллер, мелодрама
Продолжительность: 01:16:28
Перевод: 1) двухголосный — Петр Гланц и Инна Королева (перевод текста — релиз-группа 'DisneyJazz'),
2) авторский одноголосный — Вартан Дохалов
Русские субтитры: есть

Режиссер: Эрик Радомски, Брюс В. Тимм

В ролях: Кевин Конрой, Дана Дилэйни, Марк Хэмилл, Харт Бокнер, Стейси Кич, Эйб Вигода, Дик Миллер, Джон П. Райан, Ефрем Цимбалист мл., Боб Хатингс, Роберт Костанцо и другие

Описание:
В Готэме появляется новый борец с преступностью — Фантазм, который, в отличие от Бэтмена, попросту убивает уголовников. От его руки гибнут мафиозные боссы, являющиеся членами старой банды, орудовавшей в городе еще до появления Человека-Летучей Мыши. Главарь банды — именно он является следующей мишенью Фантазма. Идя по следу убийцы, Бэтмен приходит к выводу, что тот связан с событиями из его прошлого.


Качество: HDRip-AVC
Формат: .mkv
Видео кодек: x264
Видео: x264, 960×704 (4:3), 3600 kbps, 23,976fps, 0.222 bit/pixel

Аудио кодек: AC3 ACM Codec
Аудио 1: AC3 Dolby Digital, stereo/2.0 (L,R), CBR 192 kbps, 48000Hz (русский DVO — Петр Гланц и Инна Королева)
Аудио 2: AC3 Dolby Digital, stereo/2.0 (L,R), CBR 192 kbps, 48000Hz (русский AVO — Вартан Дохалов)
Аудио 3: AC3 Dolby Digital, stereo/2.0 (L,R), CBR 192 kbps, 48000Hz (оригинальный английский)


Представляем для ознакомления:
sample 1 — https://yadi.sk/i/ZFYlLvNz3MGf5J
sample 2 — https://yadi.sk/i/e_M8q89w3MGf5M


Mediainfo
General
Unique ID : 224418065786851596991702805017503861573 (0xA8D558E8649D91118C5BE14CA24A0B45)
Complete name : F:UploadBatman — Mask of the Phantasm (Open Matte)_ripped by RomychBatman — Mask of the Phantasm (Open Matte).mkv
Format : Matroska
Format version : Version 2
File size : 2.23 GiB
Duration : 1 h 16 min
Overall bit rate : 4 178 kb/s
Encoded date : UTC 2017-08-22 09:39:42
Writing application : mkvmerge v2.9.7 ('Tenderness') built on Jul 1 2009 18:43:35
Writing library : libebml v0.7.7 + libmatroska v0.8.1

Video
ID : 1
Format : AVC
Format/Info : Advanced Video Codec
Format profile : [email protected]
Format settings, CABAC : Yes
Format settings, ReFrames : 4 frames
Codec ID : V_MPEG4/ISO/AVC
Duration : 1 h 16 min
Bit rate : 3 600 kb/s
Width : 960 pixels
Height : 704 pixels
Display aspect ratio : 4:3
Frame rate mode : Constant
Frame rate : 23.976 (24000/1001) FPS
Color space : YUV
Chroma subsampling : 4:2:0
Bit depth : 8 bits
Scan type : Progressive
Bits/(Pixel*Frame) : 0.222
Stream size : 1.88 GiB (84%)
Title : 'Batman: Mask of the Phantasm' (Open Matte)_ripped by Romych
Writing library : x264 core 152 r2851 ba24899
Encoding settings : cabac=1 / ref=4 / deblock=1:1:1 / analyse=0x3:0x113 / me=umh / subme=6 / psy=1 / psy_rd=0.60:0.00 / mixed_ref=1 / me_range=16 / chroma_me=1 / trellis=1 / 8x8dct=1 / cqm=0 / deadzone=21,11 / fast_pskip=1 / chroma_qp_offset=-2 / threads=6 / lookahead_threads=1 / sliced_threads=0 / nr=0 / decimate=1 / interlaced=0 / bluray_compat=0 / constrained_intra=0 / bframes=3 / b_pyramid=2 / b_adapt=2 / b_bias=0 / direct=3 / weightb=0 / open_gop=0 / weightp=2 / keyint=240 / keyint_min=23 / scenecut=40 / intra_refresh=0 / rc_lookahead=40 / rc=2pass / mbtree=0 / bitrate=3600 / ratetol=1.0 / qcomp=0.60 / qpmin=10 / qpmax=51 / qpstep=4 / cplxblur=20.0 / qblur=0.5 / vbv_maxrate=50000 / vbv_bufsize=50000 / nal_hrd=none / filler=0 / ip_ratio=1.40 / pb_ratio=1.30 / aq=0
Language : English
Default : Yes
Forced : No

Audio #1
ID : 2
Format : AC-3
Format/Info : Audio Coding 3
Format profile : Dolby Digital
Mode extension : CM (complete main)
Format settings, Endianness : Big
Codec ID : A_AC3
Duration : 1 h 16 min
Bit rate mode : Constant
Bit rate : 192 kb/s
Channel(s) : 2 channels
Channel positions : Front: L R
Sampling rate : 48.0 kHz
Frame rate : 31.250 FPS (1536 spf)
Bit depth : 16 bits
Compression mode : Lossy
Stream size : 105 MiB (5%)
Title : DVO Glanz & Koroleva (translated by 'DisneyJazz')
Language : Russian
Default : Yes
Forced : No

Audio #2
ID : 3
Format : AC-3
Format/Info : Audio Coding 3
Format profile : Dolby Digital
Mode extension : CM (complete main)
Format settings, Endianness : Big
Codec ID : A_AC3
Duration : 1 h 16 min
Bit rate mode : Constant
Bit rate : 192 kb/s
Channel(s) : 2 channels
Channel positions : Front: L R
Sampling rate : 48.0 kHz
Frame rate : 31.250 FPS (1536 spf)
Bit depth : 16 bits
Compression mode : Lossy
Stream size : 105 MiB (5%)
Title : AVO Dohalov
Language : Russian
Default : No
Forced : No

Audio #3
ID : 4
Format : AC-3
Format/Info : Audio Coding 3
Format profile : Dolby Digital
Mode extension : CM (complete main)
Format settings, Endianness : Big
Codec ID : A_AC3
Duration : 1 h 16 min
Bit rate mode : Constant
Bit rate : 192 kb/s
Channel(s) : 2 channels
Channel positions : Front: L R
Sampling rate : 48.0 kHz
Frame rate : 31.250 FPS (1536 spf)
Bit depth : 16 bits
Compression mode : Lossy
Stream size : 105 MiB (5%)
Title : Original
Language : English
Default : No
Forced : No

Text #1
ID : 5
Format : UTF-8
Codec ID : S_TEXT/UTF8
Codec ID/Info : UTF-8 Plain Text
Language : Russian
Default : No
Forced : No

Text #2
ID : 6
Format : UTF-8
Codec ID : S_TEXT/UTF8
Codec ID/Info : UTF-8 Plain Text
Language : English
Default : No
Forced : No

Menu
00:00:00.000 : :00:00:00.000
00:01:47.107 : :00:01:47.107
00:05:00.217 : :00:05:00.217
00:06:31.850 : :00:06:31.850
00:08:01.648 : :00:08:01.648
00:10:24.082 : :00:10:24.082
00:15:42.984 : :00:15:42.984
00:21:32.917 : :00:21:32.917
00:24:36.016 : :00:24:36.016
00:26:04.605 : :00:26:04.605
00:28:19.823 : :00:28:19.823
00:30:35.542 : :00:30:35.542
00:31:37.521 : :00:31:37.521
00:34:05.877 : :00:34:05.877
00:36:25.517 : :00:36:25.517
00:40:15.538 : :00:40:15.538
00:41:56.514 : :00:41:56.514
00:43:53.506 : :00:43:53.506
00:47:10.161 : :00:47:10.161
00:51:39.471 : :00:51:39.471
00:52:35.736 : :00:52:35.736
00:55:17.481 : :00:55:17.481
00:57:31.448 : :00:57:31.448
00:58:55.365 : :00:58:55.365
00:59:38.241 : :00:59:38.241
01:04:04.174 : :01:04:04.174
01:06:36.576 : :01:06:36.576
01:08:00.743 : :01:08:00.743
01:09:58.194 : :01:09:58.194
01:12:20.336 : :01:12:20.336


Скриншот с названием

Скриншоты


Дополнительная информация:
— HD-Rip сделан из "Batman.Mask.of.the.Phantasm.1993.OPEN.MATTE.1080p.BluRay.x264-PSYCHD";
— Не рекомендуется к просмотру лицам, не достигшим 13 лет;
— Номинирован на 'Annie Awards' в 1994 году в категории "Лучший Анимационный Фильм"/"Best Animated Film";
— Фантазм — персонаж, созданный специально для анимационного полнометражного фильма, в комиксах не встречается;
— Полет камеры среди небоскребов при начальных титрах, сделанный на компьютере,
первоначально предполагали использовать для мультсериала, но это не было сделано;
— Мисс Бэмби, в адрес которой отпускает ироничный комментарий Альфред на вечеринке, упоминалась в первом эпизоде BTAS – "On Leather Wings",
существует информация, что Бэмби озвучила Арлин Соркин (в мультсериале озвучивает персонажа Харли Куинн);
— На экране компьютера в Бэтпещере появляются фамилии Адамс и О’Нил — это знаменитый дуэт, работавший над комиксами
о Рыцаре Ночи в 70-х. Другая пара имен на том же экране: Пакетт и Петерсон — напоминание о Келли Пакетте и Скотте Петерсоне,
создателях BTAS-комиксов;
— Эйб Вигода, озвучивший Валестру, играл гангстера Сальваторе Тессио в первом “Крестном отце”;
— 1994 году была создана комикс-адаптация полнометражного анимационного фильма, но с изменениями в плане сцен драк
и некоторых диалогов; автор Келли Пакетт, художник Майк Паробек.


Приятного Вам просмотра =]


! Раздача перезалита в связи с исправлением:
— исправлена звуковая дорожка с авторским переводом Вартана Дохалова.
Извиняемся за доставленные неудобства тем, кто скачал раннее !


Скачать Batman_-_Mask_of_the_Phantasm_Open_Matte_ripped.torrent

просмотры: 18

Оставьте первый комментарий

Оставить комментарий

Ваш электронный адрес не будет опубликован.


*